Шеф 2 / Сезон 2 / Серии: 1-32 из 32 (Олег Ларин) [2013, Боевик, криминал, детектив, SATRip]

 
Автор Сообщение

sergej644 ®

Пол:

Стаж: 4 года 11 месяцев

Сообщений: 6043

Откуда: Soviet Union



Награды: Нет

Торрент-статистика

Создавать темы 05-Июл-2014 16:56

[Цитировать]

Шеф 2 Год выпуска:2013
Производство:
Россия, "Триикс Медиа"
Жанр:
Боевик, криминал, детектив
Режиссёр:
Олег Ларин
В ролях:
Андрей Чубченко, Кирилл Полухин, Ян Цапник, Эльдар Лебедев, Татьяна Колганова, Сергей Апрельский, Татьяна Черкасова, Елизавета Карнаух, Михаил Трясоруков, Полина Булычева, Сергей Шкарбан, Владислав Резник, Игорь Павлов, Дмитрий Белов, Константин Фисенко, Анна Табанина, Евгения Игумнова, Дмитрий Сутырин, Владимир Сута, Алексей Макрецкий, Александр Загребин, Сергей Кошонин, Роман Притула, Дмитрий Мурашев, Александр Петров (X), Виктор Чупров, Руслан Кацагаджиев, Глеб Челищев, Евгений Булгаков, Максим Меркулов (II), Александр Ситников, Сергей Воробьёв (IV), Елена Тепляшина, Евгений Добряков, Ирина Обрезкова, Егор Кутенков, Стэнли Красовицки-Описание:
Полковник полиции Виктор Расторгуев осужден за превышение должностных полномочий и отбывает наказание в одной из колоний. Там он близко сходится с бывшим майором МВД Карпатовым, осуждённым за вымогательство. Считается, что он взял всю вину на себя, чтобы не подставить непосредственного начальника – полковника Дмитрия Холодилова, ныне влиятельного генерала системы МВД. Отсидев полтора года, Расторгуев получает возможность выйти на свободу. Но на свободе Расторгуева никто не ждёт: близкие и друзья отвернулись от него... Операция Департамента собственной безопасности МВД по внедрению полковника в окружение генерала Холодилова вступает в завершающую фазу, однако внедренный в преступную группировку штатный негласный сотрудник МВД очень скоро поймет, что в этих смертельных играх он может верить только старым проверенным товарищам, и скоро ему понадобится их помощь и поддержка…
Продолжительность: 10 х 00:45:00Качество: SatRip [DVB by Doc66]
Формат: AVI
Видео кодек: XviD
Аудио кодек: AC3
Видео: 720x400 (1.80:1), 25 fps, XviD build 64 ~1452 kbps avg, 0.20 bit/pixel
Аудио: 48 kHz, AC3 Dolby Digital, 2/0 (L,R) ch, ~192.00 kbps avg
-

MI

Общее
Полное имя : H:\1 серия.avi
Формат : AVI
Формат/Информация : Audio Video Interleave
Размер файла : 554 Мбайт
Продолжительность : 46 м.
Общий поток : 1655 Кбит/сек
Программа кодирования : VirtualDubMod 1.5.10.3 | www.virtualdub-fr.org || (build 2550/release)
Библиотека кодирования : VirtualDubMod build 2550/release
Видео
Идентификатор : 0
Формат : MPEG-4 Visual
Профиль формата : Advanced Simple@L5
Параметр BVOP формата : 2
Параметр QPel формата : Нет
Параметр GMC формата : Без точки перехода
Параметр матрицы формата : Default (H.263)
Идентификатор кодека : XVID
Идентификатор кодека/Подсказка : XviD
Продолжительность : 46 м.
Битрейт : 1453 Кбит/сек
Ширина : 720 пикселей
Высота : 400 пикселей
Соотношение сторон : 16:9
Частота кадров : 25,000 кадров/сек
Цветовое пространство : YUV
Субдискретизация насыщенности : 4:2:0
Битовая глубина : 8 бит
Тип развёртки : Прогрессивная
Метод сжатия : С потерями
Бит/(Пиксели*Кадры) : 0.202
Размер потока : 486 Мбайт (88%)
Библиотека кодирования : XviD 64
Аудио
Идентификатор : 1
Формат : AC-3
Формат/Информация : Audio Coding 3
Расширение режима : CM (complete main)
Идентификатор кодека : 2000
Продолжительность : 46 м.
Вид битрейта : Постоянный
Битрейт : 192 Кбит/сек
Каналы : 2 канала
Расположение каналов : Front: L R
Частота : 48,0 КГц
Битовая глубина : 16 бит
Метод сжатия : С потерями
Размер потока : 64,3 Мбайт (12%)
Выравнивание : Разделение по промежуткам
Продолжительность промежутка : 40 мс. (1,00 видеокадр)
Время предзагрузки промежутка : 500 мс.
[Профиль] [ЛС]
Кто просматривает тему:

Показать сообщения:    

Текущее время: Сегодня 20:27

Часовой пояс: GMT



Вы не можете начинать темы
Вы не можете отвечать на сообщения
Вы не можете редактировать свои сообщения
Вы не можете удалять свои сообщения
Вы не можете голосовать в опросах
Вы не можете прикреплять файлы к сообщениям
Вы не можете скачивать файлы