Шеф Адам Джонс / Burnt (2015) BDRip 1080p | iTunes

 
Автор Сообщение

BOSS ®

Пол:

Стаж: 2 года 2 месяца

Сообщений: 3750

Откуда: ODESSA



Награды: 20 (Подробнее)

Top Keeper 4 (Количество: 1) За внесенный вклад в развитие сайта (Количество: 1) Mega Seeder 2 (Количество: 1)
Торрент-статистика

Создавать темы 06-Мар-2016 21:29

[Цитировать]

Информация о фильме
Название: Шеф Адам Джонс
Оригинальное название: Burnt
Год выхода: 2015
Жанр: драма, комедия
Режиссер: Джон Уэллс
В ролях: Брэдли Купер, Сиенна Миллер, Омар Си, Даниэль Брюль, Ума Турман, Эмма Томпсон, Риккардо Скамарчио, Сэм Кили, Генри Гоодман, Мэттью Риз
О фильме: В центре сюжета — история некогда знаменитого шеф-повара, который из-за своего пагубного пристрастия теряет собственный ресторан в Париже, пониженный в рейтинге до унизительных двух звезд. Решив не сдаваться, он вновь собирает свою команду, перестраивает лондонский ресторан и надеется получить три звезды.

Выпущено: США / 3 Arts Entertainment, Double Feature Films, PeaPie Films
Продолжительность: 01:41:00
Перевод: Профессиональный (полное дублирование) [iTunes]
Файл
Формат: MKV
Качество: BDRip 1080p
Видео: MPEG-4 AVC, 7508 kb/s, 1920x800
Аудио: Russian: AC3, 384 kb/s (6 ch) / English: DTS, 1510 kb/s (6 ch), AC3, 256 kb/s (2 ch)
Субтитры: English

MI

Общее
Уникальный идентификатор : 236068565315378034698284666936623428162 (0xB19926E21008D356917ADA687EA4F242)
Полное имя : D:загрузкиShef.Adam.Dzhons.2015.D.BDRip.1080 (1).mkv
Формат : Matroska
Версия формата : Version 4 / Version 2
Размер файла : 6,95 Гбайт
Продолжительность : 1 ч. 41 м.
Общий поток : 9853 Кбит/сек
Дата кодирования : UTC 2016-03-06 20:48:35
Программа кодирования : mkvmerge v8.3.0 ('Over the Horizon') 64bit
Библиотека кодирования : libebml v1.3.1 + libmatroska v1.4.2
DURATION : 01:40:59.328000000
NUMBER_OF_FRAMES : 189354
NUMBER_OF_BYTES : 193898496
_STATISTICS_WRITING_APP : mkvmerge v8.3.0 ('Over the Horizon') 64bit
_STATISTICS_WRITING_DATE_UTC : 2016-03-06 20:48:35
_STATISTICS_TAGS : BPS DURATION NUMBER_OF_FRAMES NUMBER_OF_BYTES
Видео
Идентификатор : 1
Формат : AVC
Формат/Информация : Advanced Video Codec
Профиль формата : High@L4.1
Параметр CABAC формата : Да
Параметр ReFrames формата : 5 кадров
Идентификатор кодека : V_MPEG4/ISO/AVC
Продолжительность : 1 ч. 41 м.
Битрейт : 7508 Кбит/сек
Ширина : 1920 пикселей
Высота : 800 пикселей
Соотношение сторон : 2,40:1
Режим частоты кадров : Постоянный
Частота кадров : 23,976 кадра/сек
Цветовое пространство : YUV
Субдискретизация насыщенности : 4:2:0
Битовая глубина : 8 бит
Тип развёртки : Прогрессивная
Бит/(Пиксели*Кадры) : 0.204
Размер потока : 5,30 Гбайт (76%)
Библиотека кодирования : x264 core 148 r2638kMod 7599210
Настройки программы : cabac=1 / ref=5 / deblock=1:-3:-3 / analyse=0x3:0x133 / me=umh / subme=10 / psy=1 / fade_compensate=0.00 / psy_rd=1.00:0.00 / mixed_ref=1 / me_range=48 / chroma_me=1 / trellis=2 / 8x8dct=1 / cqm=0 / deadzone=21,11 / fast_pskip=1 / chroma_qp_offset=-2 / threads=12 / lookahead_threads=2 / sliced_threads=0 / nr=0 / decimate=1 / interlaced=0 / bluray_compat=0 / constrained_intra=0 / fgo=0 / bframes=8 / b_pyramid=2 / b_adapt=2 / b_bias=0 / direct=3 / weightb=1 / open_gop=0 / weightp=2 / keyint=250 / keyint_min=23 / scenecut=40 / intra_refresh=0 / rc=crf / mbtree=0 / crf=18.0000 / qcomp=0.60 / qpmin=0 / qpmax=69 / qpstep=4 / ip_ratio=1.30 / pb_ratio=1.20 / aq=3:0.80
Язык : English
Default : Да
Forced : Нет
DURATION : 01:41:00.305000000
NUMBER_OF_FRAMES : 145302
NUMBER_OF_BYTES : 5833706587
_STATISTICS_WRITING_APP : mkvmerge v8.3.0 ('Over the Horizon') 64bit
_STATISTICS_WRITING_DATE_UTC : 2016-03-06 20:48:35
_STATISTICS_TAGS : BPS DURATION NUMBER_OF_FRAMES NUMBER_OF_BYTES
Аудио #1
Идентификатор : 5
Формат : AC-3
Формат/Информация : Audio Coding 3
Расширение режима : CM (complete main)
Параметр Endianness формата : Big
Идентификатор кодека : A_AC3
Продолжительность : 1 ч. 41 м.
Вид битрейта : Постоянный
Битрейт : 384 Кбит/сек
Каналы : 6 каналов
Расположение каналов : Front: L C R, Side: L R, LFE
Частота : 48,0 КГц
Битовая глубина : 16 бит
Метод сжатия : С потерями
Размер потока : 277 Мбайт (4%)
Заголовок : iTunes
Язык : Russian
Default : Да
Forced : Нет
Аудио #2
Идентификатор : 6
Формат : DTS
Формат/Информация : Digital Theater Systems
Режим : 16
Параметр Endianness формата : Big
Идентификатор кодека : A_DTS
Продолжительность : 1 ч. 41 м.
Вид битрейта : Постоянный
Битрейт : 1509 Кбит/сек
Каналы : 6 каналов
Расположение каналов : Front: L C R, Side: L R, LFE
Частота : 48,0 КГц
Битовая глубина : 24 бит
Метод сжатия : С потерями
Размер потока : 1,06 Гбайт (15%)
Язык : English
Default : Нет
Forced : Нет
Аудио #3
Идентификатор : 7
Формат : AC-3
Формат/Информация : Audio Coding 3
Расширение режима : CM (complete main)
Параметр Endianness формата : Big
Идентификатор кодека : A_AC3
Продолжительность : 1 ч. 41 м.
Вид битрейта : Постоянный
Битрейт : 256 Кбит/сек
Каналы : 2 канала
Расположение каналов : Front: L R
Частота : 48,0 КГц
Битовая глубина : 16 бит
Метод сжатия : С потерями
Размер потока : 185 Мбайт (3%)
Язык : English
Default : Нет
Forced : Нет
Текст #1
Идентификатор : 2
Формат : UTF-8
Идентификатор кодека : S_TEXT/UTF8
Идентификатор кодека/Информация : UTF-8 Plain Text
Язык : English
Default : Нет
Forced : Нет
Текст #2
Идентификатор : 3
Формат : UTF-8
Идентификатор кодека : S_TEXT/UTF8
Идентификатор кодека/Информация : UTF-8 Plain Text
Язык : English
Default : Нет
Forced : Нет
Текст #3
Идентификатор : 4
Формат : UTF-8
Идентификатор кодека : S_TEXT/UTF8
Идентификатор кодека/Информация : UTF-8 Plain Text
Язык : English
Default : Нет
Forced : Нет
Меню
00:00:00.000 : en:00:00:00.000
00:04:21.386 : en:00:04:21.386
00:10:20.328 : en:00:10:20.328
00:17:42.395 : en:00:17:42.395
00:23:23.360 : en:00:23:23.360
00:31:49.950 : en:00:31:49.950
00:37:52.687 : en:00:37:52.687
00:44:25.246 : en:00:44:25.246
00:50:55.177 : en:00:50:55.177
00:55:28.659 : en:00:55:28.659
01:01:41.239 : en:01:01:41.239
01:10:27.348 : en:01:10:27.348
01:16:13.736 : en:01:16:13.736
01:23:25.125 : en:01:23:25.125
01:30:54.366 : en:01:30:54.366
01:36:11.683 : en:01:36:11.683

Скриншоты




[Профиль] [ЛС]
Кто просматривает тему:

Показать сообщения:    

Текущее время: Сегодня 11:06

Часовой пояс: GMT



Вы не можете начинать темы
Вы не можете отвечать на сообщения
Вы не можете редактировать свои сообщения
Вы не можете удалять свои сообщения
Вы не можете голосовать в опросах
Вы не можете прикреплять файлы к сообщениям
Вы не можете скачивать файлы