Шеф Адам Джонс / Burnt (2015) WEB-DLRip-AVC | Чистый звук

 
Автор Сообщение

достали все ®

Пол:

Стаж: 1 год 8 месяцев

Сообщений: 6613



Награды: 12 (Подробнее)

Mega Seeder 5 (Количество: 1) Top Releaser 2 (Количество: 1) Mega Seeder 4 (Количество: 1)
Торрент-статистика

Создавать темы 26-Дек-2015 05:07

[Цитировать]

Информация о фильме
Название: Шеф Адам Джонс
Оригинальное название: Burnt
Год выхода: 2015
Жанр: драма, комедия
Режиссер: Джон Уэллс
В ролях: Брэдли Купер, Сиенна Миллер, Омар Си, Даниэль Брюль, Ума Турман, Эмма Томпсон, Риккардо Скамарчио, Сэм Кили, Генри Гоодман, Мэттью Риз
О фильме:
В центре сюжета — история некогда знаменитого шеф-повара, который из-за своего пагубного пристрастия теряет собственный ресторан в Париже, пониженный в рейтинге до унизительных двух звезд. Решив не сдаваться, он вновь собирает свою команду, перестраивает лондонский ресторан и надеется получить три звезды.

Выпущено: США / 3 Arts Entertainment, Double Feature Films, PeaPie Films
Продолжительность: 01:40:47
Озвучивание: Дублированное [Чистый звук] Официальное
Файл
Формат: MKV
Качество: WEB-DLRip-AVC
Видео: MPEG-4 AVC, ~1751 kb/s, 1008x420
Аудио: AC3, 192 kb/s (2 ch)
--

M/I

General
Unique ID : 215458181604486846414636565006359203981 (0xA217BC82D838E8A5045C8AB4D6F4108D)
Complete name : F:FILMSНОВЫЕШеф Адам Джонс.(2015).WEB-DLRIP_AVC.[-=DoMiNo=-].mkv
Format : Matroska
Format version : Version 4 / Version 2
File size : 1.37 GiB
Duration : 1h 40mn
Overall bit rate : 1 947 Kbps
Movie name : Шеф Адам Джонс
Writing application : XviD4PSP 7.0.196
Writing library : Lavf56.40.101 / Lavf56.40.101
Attachements : cover.png
ACTORS : Брэдли Купер, Сиенна Миллер, Омар Си, Даниэль Брюль, Риккардо Скамарчио, Ума Турман, Эмма Томпсон, Сэм Кили, Генри Гудман, Мэттью Риз, Юрий Кудрявец, Екатерина Буцкая, Дмитрий Нежельский, Александр Погребняк, Лидия Громовенко, показать всех
COUNTRY : США
DATE : 2015
DIRECTOR : Джон Уэллс
ENCODING_INFO : MATROSKA,WEBM > MKV / H264 > X264 VBR-2P 1751kbps Custom / AAC-LC > AC3 CBR 192kbps
GENRE : драма, комедия
IMDB_RATING : 6.70
ITUNEXTC : mpaa|R|400|
ORIGINAL_TITLE : Burnt
PRODUCER : Стейси Шер, Эрвин Стофф, Дэвид Глассер
RATING : 6.939
SYNOPSIS : В центре сюжета — история некогда знаменитого шеф-повара, который из-за своего пагубного пристрастия теряет собственный ресторан в Париже, пониженный в рейтинге до унизительных двух звезд. Решив не сдаваться, он вновь собирает свою команду, перестраивает лондонский ресторан и надеется получить три звезды.
WRITER : Стивен Найт, Майкл Калеснико
Video
ID : 1
Format : AVC
Format/Info : Advanced Video Codec
Format profile : High@L4.1
Format settings, CABAC : Yes
Format settings, ReFrames : 12 frames
Codec ID : V_MPEG4/ISO/AVC
Duration : 1h 40mn
Bit rate : 1 751 Kbps
Width : 1 008 pixels
Height : 420 pixels
Display aspect ratio : 2.40:1
Frame rate mode : Constant
Frame rate : 25.000 fps
Color space : YUV
Chroma subsampling : 4:2:0
Bit depth : 8 bits
Scan type : Progressive
Bits/(Pixel*Frame) : 0.165
Stream size : 1.21 GiB (88%)
Writing library : x264 core 148 r2638M 7599210
Encoding settings : cabac=1 / ref=12 / deblock=1:-3:-3 / analyse=0x3:0x133 / me=umh / subme=11 / psy=1 / psy_rd=1.00:0.10 / mixed_ref=1 / me_range=32 / chroma_me=1 / trellis=2 / 8x8dct=1 / cqm=0 / deadzone=21,11 / fast_pskip=0 / chroma_qp_offset=-3 / threads=5 / lookahead_threads=1 / sliced_threads=0 / nr=0 / decimate=1 / interlaced=0 / bluray_compat=0 / constrained_intra=0 / bframes=11 / b_pyramid=2 / b_adapt=2 / b_bias=0 / direct=3 / weightb=1 / open_gop=0 / weightp=2 / keyint=250 / keyint_min=25 / scenecut=40 / intra_refresh=0 / rc=2pass / mbtree=0 / bitrate=1751 / ratetol=1.0 / qcomp=0.60 / qpmin=0 / qpmax=69 / qpstep=4 / cplxblur=20.0 / qblur=0.5 / ip_ratio=1.40 / pb_ratio=1.30 / aq=1:1.00
Language : English
Default : Yes
Forced : No
DURATION : 01:40:43.920000000
Audio
ID : 2
Format : AC-3
Format/Info : Audio Coding 3
Mode extension : CM (complete main)
Format settings, Endianness : Big
Codec ID : A_AC3
Duration : 1h 40mn
Bit rate mode : Constant
Bit rate : 192 Kbps
Channel(s) : 2 channels
Channel positions : Front: L R
Sampling rate : 48.0 KHz
Frame rate : 31.250 fps (1536 spf)
Bit depth : 32 bits
Compression mode : Lossy
Delay relative to video : 27ms
Stream size : 138 MiB (10%)
Language : English
Default : Yes
Forced : No
DURATION : 01:40:44.283000000
-- --
[Профиль] [ЛС]
Кто просматривает тему:

Показать сообщения:    

Текущее время: Сегодня 20:47

Часовой пояс: GMT



Вы не можете начинать темы
Вы не можете отвечать на сообщения
Вы не можете редактировать свои сообщения
Вы не можете удалять свои сообщения
Вы не можете голосовать в опросах
Вы не можете прикреплять файлы к сообщениям
Вы не можете скачивать файлы