Шерлок Холмс и доктор Ватсон: Сокровища Агры (1983) DVDRip-AVC

 
Автор Сообщение

sergej644 ®

Пол:

Стаж: 4 года 11 месяцев

Сообщений: 6040

Откуда: Soviet Union



Награды: Нет

Торрент-статистика

Создавать темы 13-Янв-2015 20:53

[Цитировать]

Страна: СССР
Производство: Гостелерадио, Ленфильм
Жанр: криминал, детектив
Год выпуска: 1983
Продолжительность: 02:24:53 (01:12:01 + 01:12:52)
Перевод: не требуется
Оригинальная аудиодорожка: русский
Cубтитры: нет
Режиссер: Игорь Масленников
В ролях:
Василий Ливанов, Виталий Соломин, Рина Зеленая, Борислав Брондуков, Виктор Проскурин, Сергей Шакуров, Павел Кадочников, Екатерина Зинченко, Анатолий Сливников, Валентина Кособуцкая, Николай Кузьмин, Марина Юрасова, Георгий Мартиросян, Павел Ремезов, Лариса Соловьева...
Описание:
К Шерлоку Холмсу приходит девушка по имени Мэри Морстен, которая просит его и доктора помочь в разгадке получения ею ежегодно по жемчужине и помочь в поиске её отца, пропавшего много лет назад. Холмс и Ватсон не отказывают ей в помощи и выясняют, что мисс Мэри является наследницей огромного состояния, на которое претендуют также сыновья майора Шолто и каторжник с деревянным протезом вместо ноги Джонатан Смолл, которого старшие Морстен и Шолто обманули (при этом Шолто обманул и Морстена). Дикарь Тонга — помощник Джонатана Смолла убивает одного из сыновей Шолто, а сам Смолл крадёт сокровища, однако Холмс напал на след и вместе с инспектором Лестрейдом и несколькими полицейскими устремляется в погоню по Темзе. Во время преследования убивают дикаря, но Джонатан Смолл успевает постепенно выбросить в реку все драгоценные камни. В итоге сокровище, принёсшее столько бед, не достаётся никому. Однако, во время поисков доктор Ватсон и мисс Морстен полюбили друг друга и решили пожениться…- -Исходник: DVD9 R5
Тип релиза: DVDRip-AVC
Контейнер: MKV
Видео: 712->768x572 (4:3), 25 fps, Р264 ~ 1707 kbps avg, 0.168 bit/pixel
Аудио: 48 kHz, Dolby AC3 5.1, 448 kbps
Раздача от:

MediaInfo

Общее
Полное имя : Sokrovishha.Agry.1983.DVDRip-AVC_[New-team]_by_AVP Studio.mkv
Формат : Matroska
Версия формата : Version 2
Размер файла : 1,09 Гбайт
Продолжительность : 1 ч. 12 м.
Общий поток : 2157 Кбит/сек
Дата кодирования : UTC 2013-11-05 20:57:13
Программа кодирования : mkvmerge v6.1.0 ('Old Devil') built on Mar 4 2013 09:10:42
Библиотека кодирования : libebml v1.3.0 + libmatroska v1.4.0
Видео
Идентификатор : 1
Формат : AVC
Формат/Информация : Advanced Video Codec
Профиль формата : High@L4.1
Параметр CABAC формата : Да
Параметр ReFrames формата : 6 кадров
Идентификатор кодека : V_MPEG4/ISO/AVC
Продолжительность : 1 ч. 12 м.
Битрейт : 1707 Кбит/сек
Ширина : 712 пикселей
Высота : 572 пикселя
Соотношение сторон : 4:3
Соотношение сторон в оригинале : 4:3
Частота кадров : 25,000 кадров/сек
Цветовое пространство : YUV
Субдискретизация насыщенности : 4:2:0
Битовая глубина : 8 бит
Тип развёртки : Прогрессивная
Бит/(Пиксели*Кадры) : 0.168
Размер потока : 858 Мбайт (77%)
Библиотека кодирования : x264 core 138 r2356 a1d3d17
Настройки программы : cabac=1 / ref=6 / deblock=1:-2:-1 / analyse=0x3:0x113 / me=umh / subme=10 / psy=1 / psy_rd=1.00:0.05 / mixed_ref=1 / me_range=32 / chroma_me=1 / trellis=2 / 8x8dct=1 / cqm=0 / deadzone=21,11 / fast_pskip=0 / chroma_qp_offset=-3 / threads=3 / lookahead_threads=1 / sliced_threads=0 / nr=0 / decimate=0 / interlaced=0 / bluray_compat=0 / constrained_intra=0 / bframes=8 / b_pyramid=2 / b_adapt=2 / b_bias=0 / direct=3 / weightb=1 / open_gop=0 / weightp=2 / keyint=250 / keyint_min=25 / scenecut=40 / intra_refresh=0 / rc=2pass / mbtree=0 / bitrate=1707 / ratetol=1.0 / qcomp=0.60 / qpmin=0 / qpmax=69 / qpstep=4 / cplxblur=20.0 / qblur=0.5 / ip_ratio=1.40 / pb_ratio=1.30 / aq=1:1.00
Default : Да
Forced : Нет
Аудио
Идентификатор : 2
Формат : AC-3
Формат/Информация : Audio Coding 3
Расширение режима : CM (complete main)
Идентификатор кодека : A_AC3
Продолжительность : 1 ч. 12 м.
Вид битрейта : Постоянный
Битрейт : 448 Кбит/сек
Каналы : 6 каналов
Расположение каналов : Front: L C R, Side: L R, LFE
Частота : 48,0 КГц
Битовая глубина : 16 бит
Метод сжатия : С потерями
Размер потока : 231 Мбайт (21%)
Default : Да
Forced : Нет

Скриншоты

Интересные факты

Монетный двор Новой Зеландии в 2007 г. выпустил серию серебряных двухдолларовых монет, посвящённых рассказам о Шерлоке Холмсе, на аверсе которых используются кадры из фильма.
Для фильма впервые были использованы кадры настоящего Лондона. Съемки поездки по реальной Темзе заметно отличаются по качеству от остального фильма: их снимал на 16-мм-камеру корреспондент Центрального Телевидения СССР Виталий Ильяшенко.
На 15-й минуте первой серии видно, как доктор Ватсон сажает мисс Морстен в небольшую коляску (экипаж), в которой может быть только одно сиденье. Но внутри зрителю показывают просторный экипаж, где Шерлок Холмс и мисс Морстен сидят на одном сиденье, доктор Ватсон — на другом, напротив. Выходят же все трое снова из совсем небольшого экипажа, в котором не может быть двух сидений. Фон драпировки за спиной Ватсона в следующем экипаже, в который пересаживаются все трое на 17-й минуте, такой же, как в предыдущем маленьком экипаже. Но новый — действительно, большой и просторный, с двумя сиденьями. Из этого можно сделать вывод, что обе сцены снимались на самом деле во втором, большем экипаже либо вообще в какой-то другой обстановке.
Паровой катер, на котором в «Знаке четырех» пытаются скрыться Джонатан Смолл и Тонга, называется «Аврора». В СССР это название однозначно связывалось с крейсером — символом революции, и в фильме катер переименовали в «Диану». «Дианой» назывался другой русский крейсер, однотипный с «Авророй».
Перед тем как залезть на чердак Холмс снимает ботинки и отдаёт их Ватсону, однако на жестяной крыше он снова в ботинках.
В книге Джонатан Смолл подробно рассказывает свою биографию. В фильм рассказ Смолла не вошёл.
В первой серии, когда Ватсон передает Холмсу фонарь, то можно заметить, что это не просто фонарь, а переделанный прожектор. Осветители такие прожектора прозывают "бэбиками" за их малый размер. Понятно, что масляный фонарь не смог бы дать мощный луч света, какой требуется для фильма, поэтому у прибора убрали крепежную лиру и карман для светофильтра. Однако полностью скрыть электропроисхождение фонаря не удалось. В некоторые моменты можно заметить его свисающий провод. На картинке можно увидеть театральный аналог использованного прожектора.
В книге официальным расследованием преступления занимается инспектор Этелни Джонс, а в фильме - инспектор Лестрейд.
[Профиль] [ЛС]

Создавать темы 06-Авг-2015 22:00 (спустя 6 месяцев 24 дня)

Топик был перенесен из форума Кино СССР в форум Кино СССР
sergej644
 
Кто просматривает тему:

Форум Тема Автор Размер
Разная литература Игры разума - Уотсон Дж. X. - Дедуктивные задачи Шерлока Холмса [2015, PDF/DjVu, RUS] Garik014 71 MB
Фильмы (HD DVD, Blu-ray и BDRemux) Приключения Шерлока Холмса и доктора Ватсона. Собака Баскервилей (Игорь Масленников) [1981, СССР, Детектив, полная реставрация, Blu-ray disc 1080p] painkiller 35.98 GB
Зарубежные сериалы Шерлок / Sherlock [S01-03] (2010-2014) BDRip 1080p | Первый канал Russian Mafia 31.59 GB
Зарубежные сериалы Шерлок / Sherlock [S01-03] (2010-2014) HDTVRip | Первый канал Russian Mafia 10.03 GB
Кино СССР Шерлок Холмс и доктор Ватсон: Собака Баскервилей (1981) DVDRip-AVC от New-team sergej644 2.18 GB
Фильмы (HD DVD, Blu-ray и BDRemux) Шерлок Холмс и доктор Ватсон: Собака Баскервилей (Игорь Масленников) [1981, СССР, детектив, BDRip 1080p] reversefile 18.1 GB
Фильмы (HD DVD, Blu-ray и BDRemux) Шерлок Холмс и доктор Ватсон: Собака Баскервилей (Игорь Масленников) [1981, СССР, детектив, BDRip 720p] painkiller 10.57 GB
Отечественные мультфильмы Шерлок Холмс и чёрные человечки / 6 серий (Александр Бубнов) [2012, короткометражный анимационный фильм, WEBRip-AVC 1080p] TorrentFilm 910 MB
Показать сообщения:    

Текущее время: Сегодня 02:46

Часовой пояс: GMT



Вы не можете начинать темы
Вы не можете отвечать на сообщения
Вы не можете редактировать свои сообщения
Вы не можете удалять свои сообщения
Вы не можете голосовать в опросах
Вы не можете прикреплять файлы к сообщениям
Вы не можете скачивать файлы