Шерлок Холмс и доктор Ватсон: Собака Баскервилей (1981) DVDRip-AVC от New-team

 
Автор Сообщение

sergej644 ®

Пол:

Стаж: 4 года 11 месяцев

Сообщений: 6041

Откуда: Soviet Union



Награды: Нет

Торрент-статистика

Создавать темы 13-Янв-2015 20:55

[Цитировать]

Страна: СССР
Производство: Гостелерадио, Ленфильм
Жанр: криминал, детектив
Год выпуска: 1981
Продолжительность: 02:26:11 (01:13:47 + 01:12:24)
Перевод: не требуется
Оригинальная аудиодорожка: русский
Cубтитры: нет
Режиссер: Игорь Масленников
В ролях:
Василий Ливанов, Виталий Соломин, Рина Зеленая, Никита Михалков, Александр Адабашьян, Светлана Крючкова, Олег Янковский, Ирина Купченко, Алла Демидова, Борислав Брондуков, Евгений Стеблов, Сергей Мартинсон, Олег Пальмов...
Описание:
В английском графстве Девоншир произошла загадочная смерть владельца поместья сэра Чарльза Баскервиля. Хотя смерть вызвана естественными причинами, недалеко от его трупа найдены следы какого-то существа. Из Америки в поместье приезжает племянник и наследник покойного — сэр Генри Баскервиль. Однако, доктор Мортимер, чувствуя опасность, грозящую новому хозяину, приводит молодого баронета к Шерлоку Холмсу, который вместе со своим помощником и биографом доктором Ватсоном должны решить загадку торфяных болот, расположенных около поместья…- -Исходник: DVD9 R5
Тип релиза: DVDRip-AVC
Контейнер: MKV
Видео: 712x572 (4:3), 25 fps, H264 ~ 1688 kbps avg, 0.166 bit/pixel
Аудио: 48 kHz, Dolby AC3 5.1, 448 kbps
Раздача от:

MediaInfo

Общее
Полное имя : Sobaka.Baskerviley.1981.DVDRip-AVC_[New-team]_by_AVP Studio.mkv
Формат : Matroska
Версия формата : Version 2
Размер файла : 1,10 Гбайт
Продолжительность : 1 ч. 13 м.
Общий поток : 2138 Кбит/сек
Дата кодирования : UTC 2013-11-04 23:51:00
Программа кодирования : mkvmerge v6.1.0 ('Old Devil') built on Mar 4 2013 09:10:42
Библиотека кодирования : libebml v1.3.0 + libmatroska v1.4.0
Видео
Идентификатор : 1
Формат : AVC
Формат/Информация : Advanced Video Codec
Профиль формата : High@L4.1
Параметр CABAC формата : Да
Параметр ReFrames формата : 6 кадров
Идентификатор кодека : V_MPEG4/ISO/AVC
Продолжительность : 1 ч. 13 м.
Битрейт : 1688 Кбит/сек
Ширина : 712 пикселей
Высота : 572 пикселя
Соотношение сторон : 4:3
Соотношение сторон в оригинале : 4:3
Частота кадров : 25,000 кадров/сек
Цветовое пространство : YUV
Субдискретизация насыщенности : 4:2:0
Битовая глубина : 8 бит
Тип развёртки : Прогрессивная
Бит/(Пиксели*Кадры) : 0.166
Размер потока : 869 Мбайт (77%)
Библиотека кодирования : x264 core 138 r2356 a1d3d17
Настройки программы : cabac=1 / ref=6 / deblock=1:-2:-1 / analyse=0x3:0x113 / me=umh / subme=10 / psy=1 / psy_rd=1.00:0.05 / mixed_ref=1 / me_range=32 / chroma_me=1 / trellis=2 / 8x8dct=1 / cqm=0 / deadzone=21,11 / fast_pskip=0 / chroma_qp_offset=-3 / threads=3 / lookahead_threads=1 / sliced_threads=0 / nr=0 / decimate=0 / interlaced=0 / bluray_compat=0 / constrained_intra=0 / bframes=8 / b_pyramid=2 / b_adapt=2 / b_bias=0 / direct=3 / weightb=1 / open_gop=0 / weightp=2 / keyint=250 / keyint_min=25 / scenecut=40 / intra_refresh=0 / rc=2pass / mbtree=0 / bitrate=1688 / ratetol=1.0 / qcomp=0.60 / qpmin=0 / qpmax=69 / qpstep=4 / cplxblur=20.0 / qblur=0.5 / ip_ratio=1.40 / pb_ratio=1.30 / aq=1:1.00
Default : Да
Forced : Нет
Аудио
Идентификатор : 2
Формат : AC-3
Формат/Информация : Audio Coding 3
Расширение режима : CM (complete main)
Идентификатор кодека : A_AC3
Продолжительность : 1 ч. 13 м.
Вид битрейта : Постоянный
Битрейт : 448 Кбит/сек
Каналы : 6 каналов
Расположение каналов : Front: L C R, Side: L R, LFE
Частота : 48,0 КГц
Битовая глубина : 16 бит
Метод сжатия : С потерями
Размер потока : 236 Мбайт (21%)
Default : Да
Forced : Нет

Скриншоты

Отличия от повести

Сценарий фильма близок к сюжету книги и различается в мелочах и второстепенных сюжетных линиях. В книге по сравнению с фильмом семейное предание, документ XVIII века, о Хьюго Баскервиле изложен более подробно. Дано больше деталей о жизни Чарльза Баскервиля и о том, как он сколотил состояние. С другой стороны в книге нет многих мелочей, которые добавляют атмосферу фильму. В нём Ватсон и Генри Баскервиль в нетрезвом виде отправляются ловить каторжника. Далее Генри при помощи алкоголя пытается избежать преследующего его кошмара. В повести не упоминается о нетрезвом состоянии героев, тогда как в фильме они постоянно «под градусом».
Отдельного упоминания стоит некоторая комедийность вышеописанных моментов в фильме, которые отсутствуют в книге. В частности, образ сэра Генри в исполнении Никиты Михалкова стал явно комическим.
Также в повести нет многих замечательных реплик персонажей (перевод Н. Волжиной): об овсянке, органах осязания у сыщиков (фраза взята из другого рассказа) и других.
В книге сэр Чарльз Баскервиль погибает 13 июля, а события, связанные с приездом наследника, и расследование происходят с сентября по ноябрь. В фильме сэр Чарльз Баскервиль погибает 14 января, а дальнейшая история разворачивается в конце зимы — начале весны.
По повести собака была застрелена не Лестрейдом, а самим Холмсом.
В фильме присутствует сцена перестрелки и гибели Стэплтона. По книге же Холмс, Ватсон и Лестрейд, отправившись на заброшенный рудник, по дороге обнаруживают только брошенный Стэплтоном ботинок сэра Генри. Следов же самого Стэплтона им обнаружить так и не удалось. Выясняется лишь, что до рудника он в ту ночь так и не добрался.
В повести мнимая «сестра» преступника Стэплтона, красавица из Коста-Рики Бэрил Гарсия совсем непохожа на своего «брата»-англичанина. «Он бесцветный блондин с серыми глазами, она брюнетка - таких жгучих брюнеток мне еще не приходилось встречать в Англии» - так описывает Ватсон свою первую встречу с ней. Наша «Бэрил Гарсия» в исполнении Ирины Купченко, наоборот, очень напоминает англичанку.
[Профиль] [ЛС]

Создавать темы 06-Авг-2015 22:00 (спустя 6 месяцев 24 дня)

Топик был перенесен из форума Кино СССР в форум Кино СССР
sergej644
 
Кто просматривает тему:

Форум Тема Автор Размер
Разная литература Игры разума - Уотсон Дж. X. - Дедуктивные задачи Шерлока Холмса [2015, PDF/DjVu, RUS] Garik014 71 MB
Фильмы (HD DVD, Blu-ray и BDRemux) Приключения Шерлока Холмса и доктора Ватсона. Собака Баскервилей (Игорь Масленников) [1981, СССР, Детектив, полная реставрация, Blu-ray disc 1080p] painkiller 35.98 GB
Зарубежные сериалы Шерлок / Sherlock [S01-03] (2010-2014) BDRip 1080p | Первый канал Russian Mafia 31.59 GB
Зарубежные сериалы Шерлок / Sherlock [S01-03] (2010-2014) HDTVRip | Первый канал Russian Mafia 10.03 GB
Фильмы (HD DVD, Blu-ray и BDRemux) Шерлок Холмс и доктор Ватсон: Собака Баскервилей (Игорь Масленников) [1981, СССР, детектив, BDRip 1080p] reversefile 18.1 GB
Фильмы (HD DVD, Blu-ray и BDRemux) Шерлок Холмс и доктор Ватсон: Собака Баскервилей (Игорь Масленников) [1981, СССР, детектив, BDRip 720p] painkiller 10.57 GB
Кино СССР Шерлок Холмс и доктор Ватсон: Сокровища Агры (1983) DVDRip-AVC sergej644 2.18 GB
Отечественные мультфильмы Шерлок Холмс и чёрные человечки / 6 серий (Александр Бубнов) [2012, короткометражный анимационный фильм, WEBRip-AVC 1080p] TorrentFilm 910 MB
Показать сообщения:    

Текущее время: Сегодня 01:07

Часовой пояс: GMT



Вы не можете начинать темы
Вы не можете отвечать на сообщения
Вы не можете редактировать свои сообщения
Вы не можете удалять свои сообщения
Вы не можете голосовать в опросах
Вы не можете прикреплять файлы к сообщениям
Вы не можете скачивать файлы