Шерлок: Безобразная невеста / Sherlock: The Abominable Bride (2015) BDRip 1080p | Первый канал

 
Автор Сообщение

BOSS ®

Пол:

Стаж: 2 года 1 месяц

Сообщений: 3735

Откуда: ODESSA



Награды: 20 (Подробнее)

Top Releaser 4 (Количество: 1) Top Seeder 4 (Количество: 1) Mega Seeder 5 (Количество: 1)
Торрент-статистика

Создавать темы 11-Янв-2016 07:34

[Цитировать]

Производство: Великобритания, США / BBC Wales, Hartswood Films, Masterpiece Theatre
Жанр: триллер, драма, криминал, детектив
Режиссер: Пол МакГиган, Коки Гидройч, Эрос Лин
Продюсер: Марк Гейтисс, Стивен Моффат, Берил Верту
Актеры: Бенедикт Камбербэтч, Мартин Фриман, Уна Стаббс, Руперт Грейвз, Лу Брили, Марк Гейтисс, Эндрю Скотт, Джонатан Арис, Аманда Аббингтон, Винетт Робинсон
Описание:
«Безобразная невеста» — новая рождественская серия британского сериала «Шерлок Холмс». Это отдельный фильм, не связанный сюжетом ни с тремя первыми сезонами, ни с четвертым сезоном, съемки которого начнутся в 2016 году. Герои Бенедикта Камбербэтча и Мартина Фримана впервые перенесутся в Лондон конца XIX века, и зрители увидят «классических» Шерлока Холмса и доктора Ватсона. Холмсу предстоит весьма необычное расследование: к нему за помощью обращается некий Томас Риколетти, жена которого недавно покончила с собой. Холмсу и Ватсону нужно найти способ остановить ее призрак, который бродит по городу, мечтая о мести.

Возраст: зрителям, достигшим 12 лет
Дата мировой премьеры: 02 января 2016
Дата российской премьеры: 02 января 2016
Релиз от: bluebird
Продолжительность: 01:33:05
Качество: BDRip 1080p
Перевод: Профессиональный (полное дублирование) (Первый канал)
Вид субтитров: Вшитые, отключаемые
Язык субтитров: Русский, Английский
Видео: AVC/H.264, 1920x1036, (1,85:1), 12,1 Mbps, 24.000 fps
Аудио: AC3, 6 ch, 384 kbps - Русский
Аудио: DTS, 6 ch, 1509 kbps - Английский

MediaInfo:

Общее
Уникальный идентификатор : 222756398582495594906062128741770158344 (0xA7955263AC471783A558FC3925B56108)
Полное имя : C:Sherlock.The.Abominable.Bride.2016.BDRip.1080p.mkv
Формат : Matroska
Версия формата : Version 2
Размер файла : 9,11 Гбайт
Продолжительность : 1 ч. 33 м.
Общий поток : 14,0 Мбит/сек
Дата кодирования : UTC 2016-01-10 15:17:13
Программа кодирования : mkvmerge v7.9.0 ('Birds') 64bit
Библиотека кодирования : libebml v1.3.1 + libmatroska v1.4.2
Видео
Идентификатор : 1
Формат : AVC
Формат/Информация : Advanced Video Codec
Профиль формата : High@L4.1
Параметр CABAC формата : Да
Параметр ReFrames формата : 4 кадра
Идентификатор кодека : V_MPEG4/ISO/AVC
Продолжительность : 1 ч. 33 м.
Битрейт : 12,1 Мбит/сек
Ширина : 1920 пикселей
Высота : 1036 пикселей
Соотношение сторон : 1,85:1
Режим частоты кадров : Постоянный
Частота кадров : 24,000 кадра/сек
Цветовое пространство : YUV
Субдискретизация насыщенности : 4:2:0
Битовая глубина : 8 бит
Тип развёртки : Прогрессивная
Бит/(Пиксели*Кадры) : 0.254
Размер потока : 7,70 Гбайт (85%)
Библиотека кодирования : x264 core 148 r2638 7599210
Настройки программы : cabac=1 / ref=4 / deblock=1:-3:-3 / analyse=0x3:0x133 / me=umh / subme=10 / psy=1 / psy_rd=1.00:0.00 / mixed_ref=1 / me_range=32 / chroma_me=1 / trellis=2 / 8x8dct=1 / cqm=0 / deadzone=21,11 / fast_pskip=0 / chroma_qp_offset=-2 / threads=12 / lookahead_threads=2 / sliced_threads=0 / nr=0 / decimate=0 / interlaced=0 / bluray_compat=0 / constrained_intra=0 / bframes=9 / b_pyramid=2 / b_adapt=2 / b_bias=0 / direct=3 / weightb=1 / open_gop=0 / weightp=2 / keyint=240 / keyint_min=23 / scenecut=40 / intra_refresh=0 / rc=2pass / mbtree=0 / bitrate=12125 / ratetol=1.0 / qcomp=0.60 / qpmin=0 / qpmax=69 / qpstep=4 / cplxblur=20.0 / qblur=0.5 / ip_ratio=1.40 / pb_ratio=1.30 / aq=3:0.80
Язык : English
Default : Да
Forced : Нет
Аудио #1
Идентификатор : 2
Формат : AC-3
Формат/Информация : Audio Coding 3
Расширение режима : CM (complete main)
Параметр Endianness формата : Big
Идентификатор кодека : A_AC3
Продолжительность : 1 ч. 33 м.
Вид битрейта : Постоянный
Битрейт : 384 Кбит/сек
Каналы : 6 каналов
Расположение каналов : Front: L C R, Side: L R, LFE
Частота : 48,0 КГц
Метод сжатия : С потерями
Размер потока : 256 Мбайт (3%)
Язык : Russian
Default : Да
Forced : Нет
Аудио #2
Идентификатор : 3
Формат : DTS
Формат/Информация : Digital Theater Systems
Профиль формата : ES
Режим : 16
Параметр Endianness формата : Big
Идентификатор кодека : A_DTS
Продолжительность : 1 ч. 33 м.
Вид битрейта : Постоянный
Битрейт : 1509 Кбит/сек
Каналы : 6 каналов
Расположение каналов : Front: L C R, Side: L R, LFE
Частота : 48,0 КГц
Битовая глубина : 24 бит
Метод сжатия : С потерями
Размер потока : 1005 Мбайт (11%)
Язык : English
Default : Нет
Forced : Нет
Текст #1
Идентификатор : 4
Формат : UTF-8
Идентификатор кодека : S_TEXT/UTF8
Идентификатор кодека/Информация : UTF-8 Plain Text
Язык : Russian
Default : Нет
Forced : Нет
Текст #2
Идентификатор : 5
Формат : UTF-8
Идентификатор кодека : S_TEXT/UTF8
Идентификатор кодека/Информация : UTF-8 Plain Text
Язык : English
Default : Нет
Forced : Нет
Меню
00:00:00.000 : en:00:00:00.000
00:05:58.500 : en:00:05:58.500
00:16:55.375 : en:00:16:55.375
00:26:53.958 : en:00:26:53.958
00:39:21.542 : en:00:39:21.542
00:50:07.708 : en:00:50:07.708
01:02:27.625 : en:01:02:27.625
01:14:00.958 : en:01:14:00.958
Скриншоты:

Время раздачи: 24/7
[Профиль] [ЛС]
Кто просматривает тему:

Форум Тема Автор Размер
Разная литература Игры разума - Уотсон Дж. X. - Дедуктивные задачи Шерлока Холмса [2015, PDF/DjVu, RUS] Garik014 71 MB
Фильмы (HD DVD, Blu-ray и BDRemux) Приключения Шерлока Холмса и доктора Ватсона. Собака Баскервилей (Игорь Масленников) [1981, СССР, Детектив, полная реставрация, Blu-ray disc 1080p] painkiller 35.98 GB
Зарубежные сериалы Шерлок / Sherlock [S01-03] (2010-2014) BDRip 1080p | Первый канал Russian Mafia 31.59 GB
Зарубежные сериалы Шерлок / Sherlock [S01-03] (2010-2014) HDTVRip | Первый канал Russian Mafia 10.03 GB
Кино СССР Шерлок Холмс и доктор Ватсон: Собака Баскервилей (1981) DVDRip-AVC от New-team sergej644 2.18 GB
Фильмы (HD DVD, Blu-ray и BDRemux) Шерлок Холмс и доктор Ватсон: Собака Баскервилей (Игорь Масленников) [1981, СССР, детектив, BDRip 1080p] reversefile 18.1 GB
Фильмы (HD DVD, Blu-ray и BDRemux) Шерлок Холмс и доктор Ватсон: Собака Баскервилей (Игорь Масленников) [1981, СССР, детектив, BDRip 720p] painkiller 10.57 GB
Кино СССР Шерлок Холмс и доктор Ватсон: Сокровища Агры (1983) DVDRip-AVC sergej644 2.18 GB
Показать сообщения:    

Текущее время: Сегодня 08:50

Часовой пояс: GMT



Вы не можете начинать темы
Вы не можете отвечать на сообщения
Вы не можете редактировать свои сообщения
Вы не можете удалять свои сообщения
Вы не можете голосовать в опросах
Вы не можете прикреплять файлы к сообщениям
Вы не можете скачивать файлы