Шелк / Silk (Франсуа Жирар / Francois Girard) [2007, Канада, Франция, Япония, Великобритания, Италия, драма, мелодрама, SATRip] [Open Matte] MVO

 
Автор Сообщение

TorrentFilm ®

Пол:

Стаж: 2 года

Сообщений: 7741



Награды: Нет

Торрент-статистика

Создавать темы 05-Мар-2016 00:08

[Цитировать]

Шелк / Silk / Open Matte
Страна: Канада, Франция, Япония, Великобритания, Италия
Жанр: драма, мелодрама
Год выпуска: 2007
Продолжительность: 01:38:13
Перевод: Профессиональный (многоголосый закадровый)
Cубтитры: нет
Оригинальная аудиодорожка: нет
Режиссер: Франсуа Жирар / Francois Girard
В ролях: Кира Найтли, Майкл Питт, Коджи Якушо, Альфред Молина, Марк Рендалл, Ашина Сеи , Каллум Кейти Ренни, Кеннетт Уэлш, Мики Накатани, Каната Хонго
Описание: События романа происходят в 19-м веке. Молодой женатый француз Эрве Жанкур занимается контрабандой тутового шелкопряда. Он отправляется из Франции в Японию, чтобы забрать секретный груз. В Японии он знакомится с красивой девушкой из Европы, любовницей местного богача. Страсть к красавице охватывает Жанкура. Не имея возможности говорить на одном языке, они общаются с помощью писем. Но начинается военная интервенция. Несмотря на это, их чувство не гаснет, и об их отношениях начинает подозревать Хелен, жена Жанкура...
Доп. информация: Наполнение кадра отличается от DVD http://screenshotcomparison.com/comparison/163882
Сэмпл: http://multi-up.com/1091268
Качество видео: SATRip
Формат видео: AVI
Видео: MPEG4, XviD, 720x400 (16:9), 25.000 fps, 1 915 Kbps (0.266 bit/pixel)
Аудио: AC-3, 48.0 KHz, 2 ch, 192 Kbps, CBR

MediaInfo

Общее
Полное имя : N:\Шелк.avi
Формат : AVI
Формат/Информация : Audio Video Interleave
Размер файла : 1,45 Гбайт
Продолжительность : 1 ч. 38 м.
Общий поток : 2117 Кбит/сек
Название фильма : Шелк / Silk (2007)
Программа кодирования : VirtualDubMod 1.5.10.2 (build 2540/release)
Библиотека кодирования : VirtualDubMod build 2540/release
Авторское право : miha2154
Видео
Идентификатор : 0
Формат : MPEG-4 Visual
Профиль формата : Advanced Simple@L5
Параметр BVOP формата : 1
Параметр QPel формата : Нет
Параметр GMC формата : Без точки перехода
Параметр матрицы формата : Выборочная
Идентификатор кодека : XVID
Идентификатор кодека/Подсказка : XviD
Продолжительность : 1 ч. 38 м.
Битрейт : 1915 Кбит/сек
Ширина : 720 пикселей
Высота : 400 пикселей
Соотношение сторон : 16:9
Частота кадров : 25,000 кадров/сек
Цветовое пространство : YUV
Субдискретизация насыщенности : 4:2:0
Битовая глубина : 8 бит
Тип развёртки : Прогрессивная
Метод сжатия : С потерями
Бит/(Пиксели*Кадры) : 0.266
Размер потока : 1,31 Гбайт (90%)
Библиотека кодирования : XviD 65
Аудио
Идентификатор : 1
Формат : AC-3
Формат/Информация : Audio Coding 3
Расширение режима : CM (complete main)
Параметр Endianness формата : Big
Идентификатор кодека : 2000
Продолжительность : 1 ч. 38 м.
Вид битрейта : Постоянный
Битрейт : 192 Кбит/сек
Каналы : 2 канала
Расположение каналов : Front: L R
Частота : 48,0 КГц
Частота кадров : 31,250 кадров/сек (1536 spf)
Метод сжатия : С потерями
Размер потока : 135 Мбайт (9%)
Выравнивание : Разделение по промежуткам
Продолжительность промежутка : 40 мс. (1,00 видеокадр)
Время предзагрузки промежутка : 500 мс.
Заголовок : Профессиональный (многоголосый закадровый)

Скриншоты


[Профиль] [ЛС]
Кто просматривает тему:

Показать сообщения:    

Текущее время: Сегодня 18:44

Часовой пояс: GMT



Вы не можете начинать темы
Вы не можете отвечать на сообщения
Вы не можете редактировать свои сообщения
Вы не можете удалять свои сообщения
Вы не можете голосовать в опросах
Вы не можете прикреплять файлы к сообщениям
Вы не можете скачивать файлы