Шедевры ужаса / Частицы таланта / Pieces of Talent (Джо Стойффер / Joe Stauffer) [2014, США , Ужасы, ужасы, триллер, драма, DVDRip ] DVO

 
Автор Сообщение

TorrentFilm ®

Пол:

Стаж: 2 года

Сообщений: 7741



Награды: Нет

Торрент-статистика

Создавать темы 22-Дек-2014 02:00

[Цитировать]

Шедевры ужаса / Частицы таланта / Pieces of Talent
Страна: США
Жанр: ужасы, триллер
Год выпуска: 2014
Продолжительность: 01:35:14
Перевод: Любительский (двухголосый закадровый) [DeadSno & den904] по переводу [Antonio]
Оригинальная аудиодорожка: нет
Cубтитры: нет
Режиссер: Джо Стойффер / Joe Stauffer
В ролях:Дэвид Лонг, Кристи Рэй, Тейлор Ковальски, Барбара Уитман, Джон Стэффорд, Нат Паннинг, Джой Минк, Шэйн Каллахан, Джон Марчиони, Саймон Крист
Описание: Действие фильма разворачивается в маленьком городке в Северной Каролине. Шарлотта, начинающая актриса, работает в ночном клубе официанткой, и еле сводит концы с концами. Однажды она случайно знакомится с местным режиссёром фильмов ужасов Дэвидом. Они быстро становятся друзьями, и Шарлотта претендует на главную роль в его новом проекте. Одержимый Шарлоттой Джвид начинает создавать свой очередной шедевр ужаса, который выразит всю красоту его новой музы.

Сэмпл
Качество: DVDRip
Контейнер: AVI
Видео: 720x304 (2.37:1), 23.976 fps, XviD build 50 ~1993 kbps avg, 0.38 bit/pixel
Аудио: 48 kHz, AC3 Dolby Digital, 2/0 (L,R) ch, ~192 kbps

MI

General
Complete name : C:\Users\Вячеслав\Downloads\Pieces.Of.Talent.2014.DVDRip.avi
Format : AVI
Format/Info : Audio Video Interleave
File size : 1.46 GiB
Duration : 1h 35mn
Overall bit rate : 2 195 Kbps
Writing application : VirtualDubMod 1.5.10.2 (build 2542/release)
Writing library : VirtualDubMod build 2542/release
Video
ID : 0
Format : MPEG-4 Visual
Format profile : Advanced Simple@L5
Format settings, BVOP : 2
Format settings, QPel : No
Format settings, GMC : No warppoints
Format settings, Matrix : Default (MPEG)
Codec ID : XVID
Codec ID/Hint : XviD
Duration : 1h 35mn
Bit rate : 1 994 Kbps
Width : 720 pixels
Height : 304 pixels
Display aspect ratio : 2.35:1
Frame rate : 23.976 fps
Color space : YUV
Chroma subsampling : 4:2:0
Bit depth : 8 bits
Scan type : Progressive
Compression mode : Lossy
Bits/(Pixel*Frame) : 0.380
Stream size : 1.33 GiB (91%)
Writing library : XviD 1.2.1 (UTC 2008-12-04)
Audio
ID : 1
Format : AC-3
Format/Info : Audio Coding 3
Mode extension : CM (complete main)
Format settings, Endianness : Big
Codec ID : 2000
Duration : 1h 35mn
Bit rate mode : Constant
Bit rate : 192 Kbps
Channel(s) : 2 channels
Channel positions : Front: L R
Sampling rate : 48.0 KHz
Bit depth : 16 bits
Compression mode : Lossy
Stream size : 131 MiB (9%)
Alignment : Split accross interleaves
Interleave, duration : 42 ms (1.00 video frame)
Interleave, preload duration : 500 ms

Скриншоты

[Профиль] [ЛС]
Показать сообщения:    

Текущее время: Сегодня 05:18

Часовой пояс: GMT



Вы не можете начинать темы
Вы не можете отвечать на сообщения
Вы не можете редактировать свои сообщения
Вы не можете удалять свои сообщения
Вы не можете голосовать в опросах
Вы не можете прикреплять файлы к сообщениям
Вы не можете скачивать файлы