Швея / The Seamstress (Джесси Джеймс Миллер / Jesse James Miller) [2009, Канада, ужасы, триллер, криминал, детектив, HDRip] MVO (Кинопоказ) + Original Eng

 
Автор Сообщение

painkiller ®

Стаж: 2 года 3 месяца

Сообщений: 582



Награды: Нет

Торрент-статистика

Создавать темы 14-Авг-2014 13:00

[Цитировать]

Швея / The Seamstress
Страна: Канада
Жанр: ужасы, триллер, криминал, детектив
Год выпуска: 2009
Продолжительность: 01:15:26
Перевод: Профессиональный (многоголосый закадровый) Кинопоказ
Cубтитры: нет
Оригинальная аудиодорожка: английский
Режиссер: Джесси Джеймс Миллер / Jesse James Miller
В ролях: Лэнс Хенриксен,Кэйлин Си, Дэвид Копп, Джеймс Кирк, Лара Гилкрист, Ричард Стро, Кевин МакНалти, Дэвид Найкл
Описание: 20 лет назад в небольшом городке Стик-Крикс орудовал серийный маньяк, убивавший детей. Признаком почерка изувера служили глаза и рот, зашитые на телах истерзанных жертв, за что он получил прозвище Швея. В убийствах была обвинена местная портниха Маргрет, отличавшаяся нелюдимым характером. Жители города увезли ее на небольшой остров и линчевали там, но перед смертью невинная девушка произнесла проклятие, обрекшее на смерть ее мучителей если они не найдут настоящего маньяка. Вместе с Маргрет погиб пытавщийся защитить ее муж. Тел невинно погибших не нашли, а в окрестностях города появилось наводящее ужас приведение обезображенной женщины ...
В настоящем же времени Эллен Платт расследует обстоятельства исчезновения своего отца. Ее отец Дональд, возвращаясь к жизни после многих лет душевной болезни узнал, что Швея не прекратил своих грязных дел 20 лет назад и взялся за расследование преступлений. Теперь Эллен должна довести дело отца до конца. Поиски приводят ее с друзьями на остров, где была убита невинная портниха и они из преследователей превращаются в жертв... Но кто им противостоит? Ужасное привидение? Шериф в отставке, зачем то взявшийся за черную магию? Или на охоту вновь вышел Швея?
Сэмпл: http://multi-up.com/973983
Качество видео: HDRip
Формат видео: AVI
Видео: MPEG4, XviD, 720x400 (16/9), 24.000 fps, 1 948 Kbps (0.282 bit/pixel)
Аудио: AC-3, 48.0 KHz, 2 ch, 192 Kbps, CBR - русский
Аудио 2: AC-3, 48.0 KHz, 6 ch, 448 Kbps, CBR - английский

MediaInfo

Общее
Полное имя : K:\Швея.avi
Формат : AVI
Формат/Информация : Audio Video Interleave
Размер файла : 1,37 Гбайт
Продолжительность : 1 ч. 15 м.
Общий поток : 2602 Кбит/сек
Название фильма : Швея / The Seamstress (2009)
Режиссёр : miha2154
Программа кодирования : VirtualDubMod 1.5.10.2 (build 2540/release)
Библиотека кодирования : VirtualDubMod build 2540/release
Видео
Идентификатор : 0
Формат : MPEG-4 Visual
Профиль формата : Advanced Simple@L5
Параметр BVOP формата : 2
Параметр QPel формата : Нет
Параметр GMC формата : Без точки перехода
Параметр матрицы формата : Default (MPEG)
Идентификатор кодека : XVID
Идентификатор кодека/Подсказка : XviD
Продолжительность : 1 ч. 15 м.
Битрейт : 1948 Кбит/сек
Ширина : 720 пикселей
Высота : 400 пикселей
Соотношение сторон : 16:9
Частота кадров : 24,000 кадра/сек
Цветовое пространство : YUV
Субдискретизация насыщенности : 4:2:0
Битовая глубина : 8 бит
Тип развёртки : Прогрессивная
Метод сжатия : С потерями
Бит/(Пиксели*Кадры) : 0.282
Размер потока : 1,03 Гбайт (75%)
Библиотека кодирования : XviD 1.1.0 (UTC 2005-11-22)
Аудио #1
Идентификатор : 1
Формат : AC-3
Формат/Информация : Audio Coding 3
Расширение режима : CM (complete main)
Параметр Endianness формата : Big
Идентификатор кодека : 2000
Продолжительность : 1 ч. 15 м.
Вид битрейта : Постоянный
Битрейт : 192 Кбит/сек
Каналы : 2 канала
Расположение каналов : Front: L R
Частота : 48,0 КГц
Битовая глубина : 16 бит
Метод сжатия : С потерями
Размер потока : 104 Мбайт (7%)
Выравнивание : Разделение по промежуткам
Продолжительность промежутка : 42 мс. (1,00 видеокадр)
Время предзагрузки промежутка : 500 мс.
Заголовок : Профессиональный (многоголосый закадровый) Кинопоказ
Аудио #2
Идентификатор : 2
Формат : AC-3
Формат/Информация : Audio Coding 3
Расширение режима : CM (complete main)
Параметр Endianness формата : Big
Идентификатор кодека : 2000
Продолжительность : 1 ч. 15 м.
Вид битрейта : Постоянный
Битрейт : 448 Кбит/сек
Каналы : 6 каналов
Расположение каналов : Front: L C R, Side: L R, LFE
Частота : 48,0 КГц
Битовая глубина : 16 бит
Метод сжатия : С потерями
Размер потока : 242 Мбайт (17%)
Выравнивание : Разделение по промежуткам
Продолжительность промежутка : 42 мс. (1,00 видеокадр)
Время предзагрузки промежутка : 500 мс.
Заголовок : Английский

Скриншоты

[Профиль] [ЛС]

Создавать темы 06-Авг-2015 23:14 (спустя 11 месяцев 23 дня)

Топик был перенесен из форума Фильмы до 2014 года в форум Фильмы до 2012 года
sergej644
 

Создавать темы 12-Июн-2016 08:48 (спустя 1 год 9 месяцев)

Топик был перенесен из форума Фильмы 2011 года в форум Фильмы 2009 года
Russian Mafia
 
Кто просматривает тему:

Показать сообщения:    

Текущее время: Сегодня 21:26

Часовой пояс: GMT



Вы не можете начинать темы
Вы не можете отвечать на сообщения
Вы не можете редактировать свои сообщения
Вы не можете удалять свои сообщения
Вы не можете голосовать в опросах
Вы не можете прикреплять файлы к сообщениям
Вы не можете скачивать файлы