Шах и мат / Checkmate (Тимоти Вудворд мл. / Timothy Woodward Jr.) [2015, США, Боевик, триллер, криминал, DVDRip] VO (Barin101) + Original Eng

 
Автор Сообщение

TorrentFilm ®

Пол:

Стаж: 2 года

Сообщений: 7741



Награды: Нет

Торрент-статистика

Создавать темы 08-Дек-2015 00:11

[Цитировать]

Шах и мат / Checkmate
Страна: США
Жанр: Боевик, триллер, криминал
Год выпуска: 2015
Продолжительность: 01:32:30
Перевод: Одноголосый закадровый Barin101
Cубтитры: нет
Оригинальная аудиодорожка: английский
Режиссер: Тимоти Вудворд мл. / Timothy Woodward Jr.
В ролях: Винни Джонс, Дэнни Гловер, Шон Эстин, Майкл Паре, Миша Бартон, Катрина Ло, Джонни Месснер, Энтвон Тэннер, Уилла Форд, Дэвид Чисам
Описание: Шесть человек судьба свела вместе при ограблении банка, одних в роли грабителей, других в роли заложников.
Что это - случайность, или они лишь маленькие пешки в чьей-то большой игре?
Сэмпл: http://multi-up.com/1078138
Качество видео: DVDRip
Формат видео: AVI
Кинопоиск
IMDB
Видео: 720x304 (2.37:1), 23.976 fps, XviD MPEG-4 ~1291 kbps avg, 0.25 bit/pixel
Аудио: #1: 48 kHz, MPEG Layer 3, 2 ch, ~128.00 kbps avg РУС
Аудио: #2: 48 kHz, MPEG Layer 3, 2 ch, ~128.00 kbps avg ENG

MediaInfo

General
Complete name : A:\Checkmate.2015.DVDRip.XViD.AC3.Barin101.avi
Format : AVI
Format/Info : Audio Video Interleave
File size : 1.01 GiB
Duration : 1h 32mn
Overall bit rate : 1 562 Kbps
Writing application : VirtualDubMod 1.5.10.2 (build 2540/release)
Writing library : VirtualDubMod build 2540/release
Video
ID : 0
Format : MPEG-4 Visual
Format profile : Advanced Simple@L5
Format settings, BVOP : 2
Format settings, QPel : No
Format settings, GMC : No warppoints
Format settings, Matrix : Default (H.263)
Muxing mode : Packed bitstream
Codec ID : XVID
Codec ID/Hint : XviD
Duration : 1h 32mn
Bit rate : 1 292 Kbps
Width : 720 pixels
Height : 304 pixels
Display aspect ratio : 2.35:1
Frame rate : 23.976 fps
Color space : YUV
Chroma subsampling : 4:2:0
Bit depth : 8 bits
Scan type : Progressive
Compression mode : Lossy
Bits/(Pixel*Frame) : 0.246
Stream size : 855 MiB (83%)
Writing library : XviD 66
Audio #1
ID : 1
Format : MPEG Audio
Format version : Version 1
Format profile : Layer 3
Codec ID : 55
Codec ID/Hint : MP3
Duration : 1h 32mn
Bit rate mode : Constant
Bit rate : 128 Kbps
Channel(s) : 2 channels
Sampling rate : 48.0 KHz
Compression mode : Lossy
Stream size : 84.7 MiB (8%)
Alignment : Aligned on interleaves
Interleave, duration : 42 ms (1.00 video frame)
Interleave, preload duration : 504 ms
Audio #2
ID : 2
Format : MPEG Audio
Format version : Version 1
Format profile : Layer 3
Mode : Joint stereo
Mode extension : MS Stereo
Codec ID : 55
Codec ID/Hint : MP3
Duration : 1h 32mn
Bit rate mode : Constant
Bit rate : 128 Kbps
Channel(s) : 2 channels
Sampling rate : 48.0 KHz
Compression mode : Lossy
Stream size : 84.7 MiB (8%)
Alignment : Split accross interleaves
Interleave, duration : 42 ms (1.00 video frame)
Interleave, preload duration : 500 ms
Writing library : LAME3.99.5

Скриншот c названием фильма

[Профиль] [ЛС]
Показать сообщения:    

Текущее время: Сегодня 22:42

Часовой пояс: GMT



Вы не можете начинать темы
Вы не можете отвечать на сообщения
Вы не можете редактировать свои сообщения
Вы не можете удалять свои сообщения
Вы не можете голосовать в опросах
Вы не можете прикреплять файлы к сообщениям
Вы не можете скачивать файлы