Шарм-эль-Шейх - незабываемый отпуск / Sharm-el-Sheikh - Un\'estate indimenticabile (Уго Фабрицио Джордани / Ugo Fabrizio Giordani) [2010, Италия, комедия, DVDRip] + Sub Rus + Original Ita

 
Автор Сообщение

TorrentFilm ®

Пол:

Стаж: 1 год 11 месяцев

Сообщений: 7741



Награды: Нет

Торрент-статистика

Создавать темы 03-Июн-2015 00:04

[Цитировать]

Шарм-эль-Шейх - незабываемый отпуск / Sharm-el-Sheikh - Un'estate indimenticabile
Страна: Италия
Жанр: комедия
Год выпуска: 2010
Продолжительность: 01:27:19
Перевод: Субтитры
Cубтитры: русские
Оригинальная аудиодорожка: итальянский
Режиссер: Уго Фабрицио Джордани / Ugo Fabrizio Giordani
В ролях: Джорджио Панариелло, Энрико Бриньяно, Маурицио Касагранде, Чечилия Дацци
( "Прости за любовь", Прости, хочу на тебе жениться")
,
Микела Кваттрочокке (" Прости за любовь", " Прости, хочу на тебе жениться" , " Песня для Тебя") ,
Лаура Торризи, Хассани Шапи, Фиоретта Мари, Серджио Муниз
Людовика Биццалья, Даниэль Ла Леджия, Элена Руссо.
Описание: Страховой агент Фабио Романо вот-вот потеряет работу из-за сокращений, вызванных кризисом.
Компанию, в которой он работает, приобрела другая организация, и руководство решило, что либо Фабио, либо его коллега Нанни Де Паскалис будут уволены.
Узнав, что новый босс отдыхает в Шарм-эль-Шейхе, Фабио , под предлогом очередного отпуска,
решает со всей семьей поехать к Красному морю и попытаться угодить начальству.
Но в его «благородные» планы вмешивается неожиданное появление конкурента…
Доп. информация:
Последняя роль Микеллы Кватрочокке / Michela Quattrociocche ( уже 5 лет информации нет о проектах, так что на 90 %)
Перевод : Scirocco2011
Редакция :Maxj
Специально для озвучки
все раздачи фильма : http://torrentfilm.net/forum/tracker.php?nm=Sharm-el-...0indimenticabile
Сэмпл: https://www.sendspace.com/file/q5oa5e
Качество видео: DVDRip
Формат видео: AVI
Видео: 624x336 (1.85:1), 25 fps, XviD MPEG-4 ~1722 kbps avg
Аудио: AC3, 48 KHz, 448 kb/s (6 ch)
Формат субтитров: softsub (SRT)

MediaInfo

D:\Шарм - эль - шейх\Sharm.El.Sheikh.2010.iTALIAN.DVDRip.XviD_all.avi
General
Complete name : D:\Шарм - эль - шейх\Sharm.El.Sheikh.2010.iTALIAN.DVDRip.XviD_all.avi
Format : AVI
Format/Info : Audio Video Interleave
File size : 1.33 GiB
Duration : 1h 27mn
Overall bit rate : 2 179 Kbps
Writing application : VirtualDubMod 1.5.10.1 (build 2439/release)
Writing library : Boilsoft AVI tool build 30012/release
Video #0
ID : 0
Format : MPEG-4 Visual
Format profile : Advanced Simple@L5
Format settings, BVOP : 1
Format settings, QPel : No
Format settings, GMC : No warppoints
Format settings, Matrix : Default (MPEG)
Codec ID : XVID
Codec ID/Hint : XviD
Duration : 1h 27mn
Bit rate : 1 722 Kbps
Width : 624 pixels
Height : 336 pixels
Display aspect ratio : 1.85:1
Frame rate : 25.000 fps
Color space : YUV
Chroma subsampling : 4:2:0
Bit depth : 8 bits
Scan type : Progressive
Compression mode : Lossy
Bits/(Pixel*Frame) : 0.328
Stream size : 1.05 GiB (79%)
Writing library : XviD 1.2.0.dev47 (UTC 2006-11-01)
Audio #1
ID : 1
Format : AC-3
Format/Info : Audio Coding 3
Mode extension : CM (complete main)
Format settings, Endianness : Big
Codec ID : 2000
Duration : 1h 27mn
Bit rate mode : Constant
Bit rate : 448 Kbps
Channel(s) : 6 channels
Channel positions : Front: L C R, Side: L R, LFE
Sampling rate : 48.0 KHz
Bit depth : 16 bits
Compression mode : Lossy
Stream size : 280 MiB (21%)
Alignment : Split accross interleaves
Interleave, duration : 40 ms (1.00 video frame)
Interleave, preload duration : 500 ms

Скриншот c названием фильма

Скриншоты

Пример субтитров:

скрытый текст

917
00:56:09,744 --> 00:56:13,038
Ты что, за мной повторяешь ?
- Угу !
- Хочешь вздыхать, вздыхай по-своему !
918
00:56:13,164 --> 00:56:14,832
- Тебе - то что ?
- Повторюшка !
919
00:56:19,129 --> 00:56:23,674
Привет, Я - Катрина.
Я - Ирина. Я - Елена.
920
00:56:26,678 --> 00:56:29,263
- А я - счастливчик.
- Привет, Счастливчик.
921
00:56:29,556 --> 00:56:33,267
Кто из вас двоих хочет нас двоих,
а кто из вас двоих - одну ?
922
00:56:35,103 --> 00:56:36,603
- Кто двоих хочет ?
- А ?
923
00:56:36,730 --> 00:56:38,480
- Двоих, кто хочет ?
- Не знаю.
924
00:56:38,606 --> 00:56:42,818
- В каком смысле двоих ?
- Тогда я решу.
925
00:56:44,904 --> 00:56:49,199
- Ты - мужчина только для одной.Пошли займемся тук-туком.
- Тук-туком?
926
00:56:50,076 --> 00:56:53,037
- Я пошел заниматься тук-туком.
- Да, здесь всё решаю я.
927
00:56:53,371 --> 00:56:58,250
Тук-тук ? Это как у Рафаэллы Карра ?
там, где он делает.. тукает её, а она тукает его ?
928
00:56:58,543 --> 00:57:01,295
И они друг-друга тук-тукают.
929
00:57:01,629 --> 00:57:03,839
- Господин...
- Не называйте меня "господин".
930
00:57:03,923 --> 00:57:06,759
Я думала просто, что со всеми вашими титулами,
вы господин..
931
00:57:06,885 --> 00:57:10,304
Называйте меня просто "президент'
Подождите меня внутри, я сейчас подойду.
932
00:57:10,430 --> 00:57:12,348
- Сюда ?
- Да, прошу, там подождите.
933
00:57:13,016 --> 00:57:16,560
Лука, сделай мне одолжение,
зайди с нами туда,
934
00:57:16,728 --> 00:57:19,563
а потом, минут через десять
935
00:57:21,024 --> 00:57:23,692
или через пять минут
возвращайся за нами.
936
00:57:23,818 --> 00:57:27,071
- Я тебе подарю пару новых ласт. Пошли.
- Понял.
937
00:57:27,781 --> 00:57:30,949
- Ты настоящий итальянский мачо ?
- Да, я итальянец.
938
00:57:31,743 --> 00:57:34,536
Ты - я заниматься любовь долго-долго.
[Профиль] [ЛС]

Создавать темы 06-Авг-2015 22:31 (спустя 2 месяца 3 дня)

Топик был перенесен из форума Фильмы до 2014 года в форум Фильмы до 2012 года
sergej644
 

Создавать темы 12-Июн-2016 07:54 (спустя 1 год)

Топик был перенесен из форума Фильмы 2011 года в форум Фильмы 2010 года
Russian Mafia
 
Кто просматривает тему:

Показать сообщения:    

Текущее время: Сегодня 04:58

Часовой пояс: GMT



Вы не можете начинать темы
Вы не можете отвечать на сообщения
Вы не можете редактировать свои сообщения
Вы не можете удалять свои сообщения
Вы не можете голосовать в опросах
Вы не можете прикреплять файлы к сообщениям
Вы не можете скачивать файлы