Шапито-шоу (2 части) (Сергей Лобан) [2011, Россия, Комедия, BDRip 720p] Original Rus

 
Автор Сообщение

TorrentFilm ®

Пол:

Стаж: 2 года

Сообщений: 7741



Награды: Нет

Торрент-статистика

Создавать темы 01-Янв-2016 00:07

[Цитировать]

Шапито-шоу: Любовь и дружба
Страна: Россия
Студия: Organic Films
Жанр: Комедия
Год выпуска: 2011
Продолжительность: 01:46:37
Перевод: Не требуется
Cубтитры: нет
Оригинальная аудиодорожка: русский
Режиссер: Сергей Лобан
В ролях: Петр Мамонов, Вера Строкова, Сергей Попов, Алексей Подольский, Валерий Заводовский, Сергей Волжин-Ястребов, Юлия Говор, Дмитрий Новиков, Джим Авиньон, Сергей Кузьменко
Описание: Новелла Любовь. Спешите видеть! Пронзительная история любви хрупкой девушки, которая мечтала стать принцессой и загадочного юноши, который скрывается от людей под именем Киберстранник. Море слез и бездна отчаяния! Могут ли Золушка и Человек-Невидимка быть вместе? Только у нас!
Новелла Дружба. Впервые на экране! Юноша, утративший способность слышать, но сохранивший пылающее сердце, и мальчик с ледяным осколком в глазу. Коварное предательство и несгибаемое мужество! Огненный Данко и Ледяной Кай, две стихии, столкнувшись, могут уничтожить Вселенную! Торопитесь видеть!
Рейтинг:
Сэмпл: http://multi-up.com/751411
Тип релиза: BDRip 720p
Контейнер: MKV
Видео: 1280x676 at 25.000 fps, x264@L4.1, crf, ~5 929 kbps avg
Аудио: Russian: 48 kHz, AC3, 3/2 (L,C,R,l,r) + LFE ch, ~640.00 kbps avg
Релиз: by Skazhutin

Скриншоты

MediaInfo

General
Unique ID : 170521479196901961371279535033827482114 (0x80493E0705B5BAE5AB9BB6072B1C5A02)
Complete name : E:\Downloads\Shapito-shou.HDCLUB\Шапито-шоу. Любовь и дружба.2011.720p.BluRay.Rus.HDCLUB.mkv
Format : Matroska
Format version : Version 2
File size : 4.99 GiB
Duration : 1h 46mn
Overall bit rate : 6 703 Kbps
Movie name : Шапито-шоу: Любовь и дружба (2011) - Release for HDCLUB by Skazhutin
Encoded date : UTC 2012-03-02 11:55:43
Writing application : mkvmerge v5.3.0 ('I could have danced') built on Feb 9 2012 10:38:07
Writing library : libebml v1.2.3 + libmatroska v1.3.0
Attachment : Yes / Yes
Video
ID : 1
Format : AVC
Format/Info : Advanced Video Codec
Format profile : High@L4.1
Format settings, CABAC : Yes
Format settings, ReFrames : 9 frames
Codec ID : V_MPEG4/ISO/AVC
Duration : 1h 46mn
Bit rate : 5 929 Kbps
Width : 1 280 pixels
Height : 676 pixels
Display aspect ratio : 1.893
Frame rate : 25.000 fps
Color space : YUV
Chroma subsampling : 4:2:0
Bit depth : 8 bits
Scan type : Progressive
Bits/(Pixel*Frame) : 0.274
Stream size : 4.42 GiB (88%)
Title : Release for HDCLUB
Writing library : x264 core 120 r2146kMod bcd41db
Encoding settings : cabac=1 / ref=9 / deblock=1:-2:-2 / analyse=0x3:0x113 / me=umh / subme=11 / psy=1 / fade_compensate=0.00 / psy_rd=1.10:0.05 / mixed_ref=1 / me_range=48 / chroma_me=1 / trellis=2 / 8x8dct=1 / cqm=0 / deadzone=21,11 / fast_pskip=1 / chroma_qp_offset=-3 / threads=12 / sliced_threads=0 / nr=0 / decimate=1 / interlaced=0 / bluray_compat=0 / constrained_intra=0 / bframes=9 / b_pyramid=2 / b_adapt=2 / b_bias=0 / direct=1 / weightb=1 / open_gop=0 / weightp=2 / keyint=250 / keyint_min=25 / scenecut=40 / intra_refresh=0 / rc_lookahead=40 / rc=crf / mbtree=0 / crf=17.0000 / qcomp=0.65 / qpmin=0 / qpmax=69 / qpstep=4 / vbv_maxrate=50000 / vbv_bufsize=62500 / crf_max=0.0 / nal_hrd=none / ip_ratio=1.40 / pb_ratio=1.30 / aq=3:1.00
Language : Russian
Default : Yes
Forced : No
Matrix coefficients : BT.709-5, BT.1361, IEC 61966-2-4 709, SMPTE RP177
Audio
ID : 2
Format : AC-3
Format/Info : Audio Coding 3
Mode extension : CM (complete main)
Format settings, Endianness : Big
Codec ID : A_AC3
Duration : 1h 46mn
Bit rate mode : Constant
Bit rate : 640 Kbps
Channel(s) : 6 channels
Channel positions : Front: L C R, Side: L R, LFE
Sampling rate : 48.0 KHz
Bit depth : 16 bits
Compression mode : Lossy
Stream size : 488 MiB (10%)
Title : AC3 5.1 @ 640 kbps
Language : Russian
Default : Yes
Forced : No
Menu
00:00:00.000 : en:Chapter 1
00:01:20.080 : en:Chapter 2
00:29:10.000 : en:Chapter 3
00:57:07.600 : en:Chapter 4
01:17:00.400 : en:Chapter 5

-
Шапито-шоу: Уважение и сотрудничество
Страна: Россия
Студия: Organic Films
Жанр: Комедия
Год выпуска: 2011
Продолжительность: 01:50:50
Перевод: Не требуется
Cубтитры: нет
Оригинальная аудиодорожка: русский
Режиссер: Сергей Лобан
В ролях: Петр Мамонов, Вера Строкова, Сергей Попов, Алексей Подольский, Валерий Заводовский, Сергей Волжин-Ястребов, Юлия Говор, Дмитрий Новиков, Джим Авиньон, Сергей Кузьменко
Описание: Новелла Уважение. Смертельный номер! Великий мудрец, заплутавший во тьме, и его ученик, отчаянно стремящийся к свету. Они балансируют на краю пропасти, и пламя вулкана обжигает их лица. Король Лир и Звездный мальчик, их поезд судьбы стрелой несется сквозь горный тоннель. Ждет ли их свет в конце? Об этом в представлении!
Новелла Сотрудничество. Впервые в мире! Небывалое изобретение в области шоу-бизнеса! «Эрзац-звезда»! Существо, способное уничтожить любых конкурентов, и его создатель взлетят на самую вершину Олимпа, чтобы рухнуть оттуда в пучину вод. Инженер Гарин и Человек-Слон спасут или уничтожат друг друга! Это и еще многое -многое другое…!
Рейтинг:
Сэмпл: http://multi-up.com/751412
Тип релиза: BDRip 720p
Контейнер: MKV
Видео: 1280x676 at 25.000 fps, x264@L4.1, crf, ~6 135 kbps avg
Аудио: Russian: 48 kHz, AC3, 3/2 (L,C,R,l,r) + LFE ch, ~640.00 kbps avg
Релиз: by Skazhutin

Скриншоты

MediaInfo

General
Unique ID : 205672315793508551709606060942120122646 (0x9ABB0C1373CA26EAB9122B2AE5A2F916)
Complete name : E:\Downloads\Shapito-shou.HDCLUB\Шапито-шоу. Уважение и сотрудничество.2011.720p.BluRay.Rus.HDCLUB.mkv
Format : Matroska
Format version : Version 2
File size : 5.35 GiB
Duration : 1h 50mn
Overall bit rate : 6 913 Kbps
Movie name : Шапито-шоу: Уважение и сотрудничество (2011) - Release for HDCLUB by Skazhutin
Encoded date : UTC 2012-03-02 07:38:51
Writing application : mkvmerge v5.3.0 ('I could have danced') built on Feb 9 2012 10:38:07
Writing library : libebml v1.2.3 + libmatroska v1.3.0
Attachment : Yes / Yes
Video
ID : 1
Format : AVC
Format/Info : Advanced Video Codec
Format profile : High@L4.1
Format settings, CABAC : Yes
Format settings, ReFrames : 9 frames
Codec ID : V_MPEG4/ISO/AVC
Duration : 1h 50mn
Bit rate : 6 135 Kbps
Width : 1 280 pixels
Height : 676 pixels
Display aspect ratio : 1.893
Frame rate : 25.000 fps
Color space : YUV
Chroma subsampling : 4:2:0
Bit depth : 8 bits
Scan type : Progressive
Bits/(Pixel*Frame) : 0.284
Stream size : 4.75 GiB (89%)
Title : Release for HDCLUB
Writing library : x264 core 120 r2146kMod bcd41db
Encoding settings : cabac=1 / ref=9 / deblock=1:-2:-2 / analyse=0x3:0x113 / me=umh / subme=11 / psy=1 / fade_compensate=0.00 / psy_rd=1.10:0.05 / mixed_ref=1 / me_range=48 / chroma_me=1 / trellis=2 / 8x8dct=1 / cqm=0 / deadzone=21,11 / fast_pskip=1 / chroma_qp_offset=-3 / threads=12 / sliced_threads=0 / nr=0 / decimate=1 / interlaced=0 / bluray_compat=0 / constrained_intra=0 / bframes=9 / b_pyramid=2 / b_adapt=2 / b_bias=0 / direct=1 / weightb=1 / open_gop=0 / weightp=2 / keyint=250 / keyint_min=25 / scenecut=40 / intra_refresh=0 / rc_lookahead=40 / rc=crf / mbtree=0 / crf=17.0000 / qcomp=0.65 / qpmin=0 / qpmax=69 / qpstep=4 / vbv_maxrate=50000 / vbv_bufsize=62500 / crf_max=0.0 / nal_hrd=none / ip_ratio=1.40 / pb_ratio=1.30 / aq=3:1.00
Language : Russian
Default : Yes
Forced : No
Matrix coefficients : BT.709-5, BT.1361, IEC 61966-2-4 709, SMPTE RP177
Audio
ID : 2
Format : AC-3
Format/Info : Audio Coding 3
Mode extension : CM (complete main)
Format settings, Endianness : Big
Codec ID : A_AC3
Duration : 1h 50mn
Bit rate mode : Constant
Bit rate : 640 Kbps
Channel(s) : 6 channels
Channel positions : Front: L C R, Side: L R, LFE
Sampling rate : 48.0 KHz
Bit depth : 16 bits
Compression mode : Lossy
Stream size : 507 MiB (9%)
Title : AC3 5.1 @ 640 kbps
Language : Russian
Default : Yes
Forced : No
Menu
00:00:00.000 : en:Chapter 1
00:02:22.280 : en:Chapter 2
00:27:03.280 : en:Chapter 3
01:00:47.920 : en:Chapter 4
01:24:56.080 : en:Chapter 5
[Профиль] [ЛС]
Показать сообщения:    

Текущее время: Сегодня 10:33

Часовой пояс: GMT



Вы не можете начинать темы
Вы не можете отвечать на сообщения
Вы не можете редактировать свои сообщения
Вы не можете удалять свои сообщения
Вы не можете голосовать в опросах
Вы не можете прикреплять файлы к сообщениям
Вы не можете скачивать файлы