Шаолинь / Shaolin / Xin shao lin si (2011) BDRip 720р

 
Автор Сообщение

Russian Mafia ®

Пол:

Стаж: 1 год 8 месяцев

Сообщений: 4257



Награды: 10 (Подробнее)

Top Releaser 5 (Количество: 1) Top Releaser 4 (Количество: 1) Mega Seeder 1 (Количество: 1)
Торрент-статистика

Создавать темы 28-Окт-2015 09:42

[Цитировать]

Информация о фильме
Название: Шаолинь
Оригинальное название: Shaolin / Xin shao lin si
Год выхода: 2011
Жанр: Боевик, драма
Режиссер: Бенни Чан
В ролях: Энди Лау, Николас Тсе, Фань Бинбин, Джеки Чан, Джеки Ву, Ю Хин, Ксин Ксин Ксион
О фильме:
Шаолинь…Вряд ли найдется человек, который не слышал этого легендарного имени и не восхищался безупречной техникой его мастеров боевых искусств. Древняя обитель зачастую оказывалась в гуще сражений, меняя ход истории великой империи.
Вражда между китайскими военачальниками достигла своего предела. В безудержном стремлении завоевать соседние территории они погружают страну в пучину раздора. Молодой воин Сяо Че, одержав победу в поединке над одним из шаолиньских мастеров, начинает этим бахвалиться. Но самонадеянность к добру не ведет. В междоусобных распрях гибнет семья Сяо. Ему самому удается чудом спастись. Сяо укрывают шаолиньские монахи. Известия о бесчинствах местного «царька» достигают стен монастыря. Сяо Че и его новые друзья решают вмешаться и защитить простых людей от произвола жестокого завоевателя. Осуществится ли их дерзкий план? Или в финале битвы им придется спасаться бегством?

Страна: Гонконг, Китай
Студия: Beijing Silver Moon Productions, China Film Group Corporation
Продолжительность: 02:11:04
Перевод: Профессиональный (многоголосый)
Файл
Кодек: H.264
Качество: BDRip 720р от SuperMin
Видео: 1280х544 (2.35:1), 2839 Kbps, 24.000 fps
Звук: Русский (AC-3, 6ch, 448 kbps)

ЛОГ

x264 [info]: frame I:1490 Avg QP:16.25 size: 76451
x264 [info]: frame P:40465 Avg QP:17.76 size: 31572
x264 [info]: frame B:146780 Avg QP:20.91 size: 9968
x264 [info]: consecutive B-frames: 1.9% 2.5% 8.9% 16.9% 14.0% 50.5% 3.9% 0.6% 0.8%
encoded 188735 frames, 3.15 fps, 2903.94 kb/s

MI

Video
ID : 1
Format : AVC
Format/Info : Advanced Video Codec
Format profile : High@L4.1
Format settings, CABAC : Yes
Format settings, ReFrames : 10 frames
Codec ID : V_MPEG4/ISO/AVC
Duration : 2h 11mn
Bit rate : 2 839 Kbps
Width : 1 280 pixels
Height : 544 pixels
Display aspect ratio : 2.35:1
Frame rate mode : Constant
Frame rate : 24.000 fps
Color space : YUV
Chroma subsampling : 4:2:0
Bit depth : 8 bits
Scan type : Progressive
Bits/(Pixel*Frame) : 0.170
Stream size : 2.60 GiB (85%)
Writing library : x264 core 146 r2538 121396c
Encoding settings : cabac=1 / ref=10 / deblock=1:-2:-2 / analyse=0x3:0x113 / me=umh / subme=11 / psy=1 / psy_rd=1.00:0.00 / mixed_ref=1 / me_range=24 / chroma_me=1 / trellis=2 / 8x8dct=1 / cqm=0 / deadzone=21,11 / fast_pskip=0 / chroma_qp_offset=-2 / threads=4 / lookahead_threads=1 / sliced_threads=0 / nr=0 / decimate=1 / interlaced=0 / bluray_compat=0 / constrained_intra=0 / bframes=8 / b_pyramid=2 / b_adapt=2 / b_bias=0 / direct=3 / weightb=1 / open_gop=0 / weightp=2 / keyint=240 / keyint_min=22 / scenecut=40 / intra_refresh=0 / rc_lookahead=40 / rc=crf / mbtree=0 / crf=18.5 / qcomp=0.60 / qpmin=0 / qpmax=69 / qpstep=4 / vbv_maxrate=62500 / vbv_bufsize=78125 / crf_max=0.0 / nal_hrd=none / filler=0 / ip_ratio=1.40 / pb_ratio=1.30 / aq=1:1.00
Default : Yes
Forced : No
DURATION : 02:11:04.000000000
NUMBER_OF_FRAMES : 245750
NUMBER_OF_BYTES : 440384000
_STATISTICS_WRITING_APP : mkvmerge v8.3.0 ('Over the Horizon') 64bit
_STATISTICS_WRITING_DATE_UT : 2015-10-28 09:55:14
_STATISTICS_TAGS : BPS DURATION NUMBER_OF_FRAMES NUMBER_OF_BYTES
Audio
ID : 2
Format : AC-3
Format/Info : Audio Coding 3
Mode extension : CM (complete main)
Format settings, Endianness : Big
Codec ID : A_AC3
Duration : 2h 11mn
Bit rate mode : Constant
Bit rate : 448 Kbps
Channel(s) : 6 channels
Channel positions : Front: L C R, Side: L R, LFE
Sampling rate : 48.0 KHz
Compression mode : Lossy
Delay relative to video : 27ms
Stream size : 420 MiB (13%)
Language : Russian
Default : Yes
Forced : No

Скриншоты

Скриншот исходника

[Профиль] [ЛС]
Кто просматривает тему:

Показать сообщения:    

Текущее время: Сегодня 21:34

Часовой пояс: GMT



Вы не можете начинать темы
Вы не можете отвечать на сообщения
Вы не можете редактировать свои сообщения
Вы не можете удалять свои сообщения
Вы не можете голосовать в опросах
Вы не можете прикреплять файлы к сообщениям
Вы не можете скачивать файлы