Шанхайский поцелуй / Shanghai Kiss (Керн Конвайзер / Kern Konwiser, Дэвид Рен / David Ren) [2007, США, Китай, Гонконг, драма, мелодрама, комедия, HDRip] MVO

 
Автор Сообщение

TorrentFilm ®

Пол:

Стаж: 2 года 6 месяцев

Сообщений: 7773



Награды: Нет

Торрент-статистика

Создавать темы 25-Янв-2016 00:09

[Цитировать]

Шанхайский поцелуй / Shanghai Kiss
Страна: США, Китай, Гонконг
Жанр: драма, мелодрама, комедия
Год выпуска: 2007
Продолжительность: 01:45:52
Перевод: Профессиональный (многоголосый закадровый)
Cубтитры: нет
Режиссер: Керн Конвайзер / Kern Konwiser, Дэвид Рен / David Ren
В ролях: Хейден Панеттьери, Кен Люн, Келли Ху, Джоэл Мур, Джеймс Хонг, Кэтлин Ланкастер, Лорна Скотт, Спенсер Редфорд, Стивен Герард Коннелл, Брайан Гарднер, Тимоти Боттомс, Саммер Элтис, Оливер Ян, Байрон Манн, Чен Ли
Описание: Отчаянный китайско-американский актер, который случайным образом оказался увлечен ученицей старших классов, узнает что получил в наследство дом своей бабушки в Шанхае. Взращенный в Америке, герой едет в Китай, чтобы приблизиться к своим предкам, оставляя позади возможно единственную девушку, которая когда-либо любила его.
Сэмпл: http://multi-up.com/1085765/
Качество видео: HDRip
Формат видео: AVI
Видео: 688x384 (16:9), 24.000 fps, XviD 73 ~780 kbps avg, 0.123 bit/pixel
Аудио: MP3, 192.00 kbps, 48 kHz, 2 ch

MediaInfo

General
Complete name : F:\Video\Фильмы\Shanghai.Kiss.2007.MVO.HDRip.745Mb.avi
Format : AVI
Format/Info : Audio Video Interleave
File size : 743 MiB
Duration : 1h 45mn
Overall bit rate : 981 Kbps
Writing application : VirtualDubMod 1.5.10.3 | www.virtualdub-fr.org || (build 2550/release)
Writing library : VirtualDubMod build 2550/release
Video
ID : 0
Format : MPEG-4 Visual
Format profile : Advanced Simple@L5
Format settings, BVOP : 1
Format settings, QPel : No
Format settings, GMC : No warppoints
Format settings, Matrix : Custom
Codec ID : XVID
Codec ID/Hint : XviD
Duration : 1h 45mn
Bit rate : 780 Kbps
Width : 688 pixels
Height : 384 pixels
Display aspect ratio : 16:9
Frame rate : 24.000 fps
Color space : YUV
Chroma subsampling : 4:2:0
Bit depth : 8 bits
Scan type : Progressive
Compression mode : Lossy
Bits/(Pixel*Frame) : 0.123
Stream size : 590 MiB (79%)
Writing library : XviD 73
Audio
ID : 1
Format : MPEG Audio
Format version : Version 1
Format profile : Layer 3
Codec ID : 55
Codec ID/Hint : MP3
Duration : 1h 45mn
Bit rate mode : Constant
Bit rate : 192 Kbps
Channel(s) : 2 channels
Sampling rate : 48.0 KHz
Compression mode : Lossy
Stream size : 145 MiB (20%)
Alignment : Aligned on interleaves
Interleave, duration : 42 ms (1.00 video frame)
Interleave, preload duratio : 504 ms
Writing library : LAME3.99r
Encoding settings : -m s -V 4 -q 0 -lowpass 18.6 -b 192

Скриншот c названием фильма

Скриншоты

[Профиль] [ЛС]
Кто просматривает тему:

Показать сообщения:    

Текущее время: Сегодня 20:54

Часовой пояс: GMT



Вы не можете начинать темы
Вы не можете отвечать на сообщения
Вы не можете редактировать свои сообщения
Вы не можете удалять свои сообщения
Вы не можете голосовать в опросах
Вы не можете прикреплять файлы к сообщениям
Вы не можете скачивать файлы