Шанс [01-02 из 02] (2015) HDTVRip от Files-x

 
Автор Сообщение

достали все ®

Пол:

Стаж: 1 год 8 месяцев

Сообщений: 6565



Награды: 12 (Подробнее)

Mega Releaser 3 (Количество: 1) Top Releaser 3 (Количество: 1) Mega Seeder 5 (Количество: 1)
Торрент-статистика

Создавать темы 18-Окт-2015 03:30

[Цитировать]

Информация о фильме
Название: Шанс
Год выхода: 2015
Жанр: Мелодрама
Режиссер: Валерий Девятилов
В ролях: Полина Стрельникова (Сыркина), Владимир Колганов, Елена Сафонова, Екатерина Соломатина, Игорь Фурманюк, Екатерина Симаходская, Дмитрий Гудочкин, Валерий Девятилов, Людмила Гамуряк
О фильме: Жизнь не балует Женю Соколову. Как многие девчонки из деревни, она приехала покорять Москву, а вскоре оказалась беременной и брошенной на произвол судьбы. Женя уже готова вернуться домой, но судьба уготовила ей страшное испытание. Героиня оказывается втянутой в криминальную историю. Бандиты начинают охоту на Женю, и девушка вынуждена бежать куда глаза глядят, спасая себя и своего будущего ребенка.
Выпущено: Россия, к/к Русское
Продолжительность: 2 x ~ 01:30:00
Перевод: Не требуется
Сэмпл
Файл
Качество: HDTVRip
Видео: XviD, ~ 1920 Кбит/с, 720х400
Аудио: AC3, 2 ch, 192 Кбит/с

MI

General
Complete name : Y:раздачиШанс.2015.HDTVRip.RG.Russkie.serialy.&.Files-x1.Шанс.2015.HDTVRip.RG.Russkie.serialy.&.Files-x.avi
Format : AVI
Format/Info : Audio Video Interleave
File size : 1.37 GiB
Duration : 1h 30mn
Overall bit rate : 2 155 Kbps
Writing application : VirtualDubMod 1.5.10.3 | www.virtualdub-fr.org || (build 2550/release)
Writing library : VirtualDubMod build 2550/release
Video
ID : 0
Format : MPEG-4 Visual
Format profile : Advanced Simple@L5
Format settings, BVOP : 1
Format settings, QPel : No
Format settings, GMC : No warppoints
Format settings, Matrix : Custom
Codec ID : XVID
Codec ID/Hint : XviD
Duration : 1h 30mn
Bit rate : 1 954 Kbps
Width : 720 pixels
Height : 400 pixels
Display aspect ratio : 16:9
Frame rate : 25.000 fps
Color space : YUV
Chroma subsampling : 4:2:0
Bit depth : 8 bits
Scan type : Progressive
Compression mode : Lossy
Bits/(Pixel*Frame) : 0.271
Stream size : 1.24 GiB (91%)
Writing library : XviD 73
Audio
ID : 1
Format : AC-3
Format/Info : Audio Coding 3
Mode extension : CM (complete main)
Format settings, Endianness : Big
Codec ID : 2000
Duration : 1h 30mn
Bit rate mode : Constant
Bit rate : 192 Kbps
Channel(s) : 2 channels
Channel positions : Front: L R
Sampling rate : 48.0 KHz
Compression mode : Lossy
Stream size : 125 MiB (9%)
Alignment : Split accross interleaves
Interleave, duration : 40 ms (1.00 video frame)
Interleave, preload duratio : 500 ms

Скриншоты

Релиз от:
[Профиль] [ЛС]
Кто просматривает тему:

Показать сообщения:    

Текущее время: Сегодня 22:08

Часовой пояс: GMT



Вы не можете начинать темы
Вы не можете отвечать на сообщения
Вы не можете редактировать свои сообщения
Вы не можете удалять свои сообщения
Вы не можете голосовать в опросах
Вы не можете прикреплять файлы к сообщениям
Вы не можете скачивать файлы