(Шансон/Pop/Rock) гр. Рождество - Дискография (6CD) - 2011-2015, FLAC (image+.cue), lossless

 
Автор Сообщение

sergej644 ®

Пол:

Стаж: 4 года 11 месяцев

Сообщений: 6045

Откуда: Soviet Union



Награды: Нет

Торрент-статистика

Создавать темы 31-Май-2015 13:09

[Цитировать]

гр. Рождество - Дискография (6CD)-- Жанр: Шансон/Pop/RockСтрана-производитель диска: Украина/РоссияГод издания диска: 2011-2015Аудиокодек: FLAC (*.flac)Тип рипа: image+.cueБитрейт аудио: losslessПродолжительность: Указана к альбомуИсточник (релизер): trofimНаличие сканов в содержимом раздачи: да--

2011 - Один из Вас

Продолжительность: 00:55:24
Издатель (лейбл): Lavina Music
01. Давай, давай [04:26]
02. Бабье лето [04:32]
03. Игла [05:12]
04. Одноклассница [04:06]
05. Твои глаза [04:33]
06. Зимний вечер [04:54]
07. Душа [05:00]
08. Молодость [05:01]
09. Вот так! [03:04]
10. Так хочется жить [04:09]
11. Белая-белая [05:06]
12. Давай дружить [05:15]

Лог создания рипа

Exact Audio Copy V1.0 beta 1 from 15. November 2010
Отчёт EAC об извлечении, выполненном 9. сентября 2012, 16:03
Рождество / Один из Вас
Дисковод: ASUS DRW-24B3ST Adapter: 0 ID: 1
Режим чтения : ДостоверностьИспользование точного потока : ДаОтключение кэша аудио : ДаИспользование указателей C2 : Нет
Коррекция смещения при чтении : 6Способность читать области Lead-in и Lead-out : НетЗаполнение пропущенных сэмплов тишиной : ДаУдаление блоков с тишиной в начале и конце : НетПри вычислениях CRC использовались нулевые сэмплы : ДаИнтерфейс : Встроенный Win32-интерфейс для Win NT/2000
Выходной формат : Пользовательский кодировщикВыбранный битрейт : 896 kBit/sКачество : ВысокийДобавление ID3-тэга : НетУтилита сжатия : C:\Program Files\FLAC\flac.exeДополнительные параметры : -T "DATE=%y" -T "GENRE=%m" -8 -V %s
TOC извлечённого CD
Трек | Старт | Длительность | Начальный сектор | Конечный сектор --------------------------------------------------------------------- 1 | 0:00.00 | 4:26.63 | 0 | 20012 2 | 4:26.63 | 4:32.18 | 20013 | 40430 3 | 8:59.06 | 5:12.52 | 40431 | 63882 4 | 14:11.58 | 4:06.38 | 63883 | 82370 5 | 18:18.21 | 4:33.67 | 82371 | 102912 6 | 22:52.13 | 4:54.22 | 102913 | 124984 7 | 27:46.35 | 5:00.59 | 124985 | 147543 8 | 32:47.19 | 5:01.10 | 147544 | 170128 9 | 37:48.29 | 3:04.41 | 170129 | 183969 10 | 40:52.70 | 4:09.51 | 183970 | 202695 11 | 45:02.46 | 5:06.28 | 202696 | 225673 12 | 50:08.74 | 5:15.41 | 225674 | 249339
Характеристики диапазона извлечения и сообщения об ошибках
Выбранный диапазон
Имя файла D:\trofim\Рождество - Один из Вас.wav
Пиковый уровень 98.8 %0.8 X Качество диапазона 100.0 % CRC теста CC6B99E0 CRC копии CC6B99E0 Копирование... OK
Ошибок не произошло
AccurateRip: сводка
Трек 1 нет в базе данныхТрек 2 нет в базе данныхТрек 3 нет в базе данныхТрек 4 нет в базе данныхТрек 5 нет в базе данныхТрек 6 нет в базе данныхТрек 7 нет в базе данныхТрек 8 нет в базе данныхТрек 9 нет в базе данныхТрек 10 нет в базе данныхТрек 11 нет в базе данныхТрек 12 нет в базе данных
Ни одного трека нет в базе AccurateRip
Конец отчёта

Лог проверки качества

AUDIOCHECKER v2.0 beta (build 457) - by Dester - opdester@freemail.hu~~~~~~~~~~~~~~~~~~~~~~~~~~~~~~~~~~-=== НЕ РЕДАКТИРУЙТЕ ЭТОТ ФАЙЛ! ===-
Путь: ...\trofim
1 -=- Рождество - Один из Вас.flac -=- CDDA (100%)
166064788

2011 - Светлый ангел (UA)

Продолжительность: 01:01:38
Издатель (лейбл): TIP TOP MUSIC
01. Карандаши [ 03:02 ]
02. Казачья песня [ 03:27 ]
03. Улетают птицы [ 05:05 ]
04. Светлый ангел [ 04:17 ]
05. Расходились-расставались [ 03:19 ]
06. Лето-лето [ 05:08 ]
07. Лейся, песня! [ 05:13 ]
08. Найти тебя [ 05:44 ]
09. На канале в Тушино [ 04:21 ]
10. Кто здесь? [ 04:03 ]
11. Новый год, Новый год! [ 04:33 ]
12. Каюсь [ 04:10 ]
+Бонус треки
13. Молодость (Ural djs Remix) [ 05:02 ]
14. Так хочется жить (Ural djs Remix) [ 04:06 ]

Лог создания рипа

Exact Audio Copy V1.0 beta 1 from 15. November 2010
Отчёт EAC об извлечении, выполненном 26. февраля 2012, 21:12
Рождество / Светлый ангел
Дисковод: ASUS DRW-24B3ST Adapter: 0 ID: 1
Режим чтения : ДостоверностьИспользование точного потока : ДаОтключение кэша аудио : ДаИспользование указателей C2 : Нет
Коррекция смещения при чтении : 6Способность читать области Lead-in и Lead-out : НетЗаполнение пропущенных сэмплов тишиной : ДаУдаление блоков с тишиной в начале и конце : НетПри вычислениях CRC использовались нулевые сэмплы : ДаИнтерфейс : Установленный внешний ASPI-интерфейс
Выходной формат : Пользовательский кодировщикВыбранный битрейт : 768 kBit/sКачество : ВысокийДобавление ID3-тэга : НетУтилита сжатия : C:\Program Files\Exact Audio Copy\Flac\flac.exeДополнительные параметры : -T "DATE=%y" -T "GENRE=%m" -8 -V %s
TOC извлечённого CD
Трек | Старт | Длительность | Начальный сектор | Конечный сектор --------------------------------------------------------------------- 1 | 0:01.00 | 3:02.27 | 75 | 13751 2 | 3:03.27 | 3:27.14 | 13752 | 29290 3 | 6:30.41 | 5:05.72 | 29291 | 52237 4 | 11:36.38 | 4:17.47 | 52238 | 71559 5 | 15:54.10 | 3:19.50 | 71560 | 86534 6 | 19:13.60 | 5:08.17 | 86535 | 109651 7 | 24:22.02 | 5:13.58 | 109652 | 133184 8 | 29:35.60 | 5:44.36 | 133185 | 159020 9 | 35:20.21 | 4:21.73 | 159021 | 178668 10 | 39:42.19 | 4:03.31 | 178669 | 196924 11 | 43:45.50 | 4:33.48 | 196925 | 217447 12 | 48:19.23 | 4:10.20 | 217448 | 236217 13 | 52:29.43 | 5:02.74 | 236218 | 258941 14 | 57:32.42 | 4:06.58 | 258942 | 277449
Характеристики диапазона извлечения и сообщения об ошибках
Выбранный диапазон
Имя файла D:\Winamp\Рождество - Светлый ангел.wav
Пиковый уровень 90.5 %0.4 X Качество диапазона 100.0 % CRC теста C84D581B CRC копии C84D581B Копирование... OK
Ошибок не произошло
AccurateRip: сводка
Трек 1 нет в базе данныхТрек 2 нет в базе данныхТрек 3 нет в базе данныхТрек 4 нет в базе данныхТрек 5 нет в базе данныхТрек 6 нет в базе данныхТрек 7 нет в базе данныхТрек 8 нет в базе данныхТрек 9 нет в базе данныхТрек 10 нет в базе данныхТрек 11 нет в базе данныхТрек 12 нет в базе данныхТрек 13 нет в базе данныхТрек 14 нет в базе данных
Ни одного трека нет в базе AccurateRip
Конец отчёта

Лог проверки качества

AUDIOCHECKER v2.0 beta (build 457) - by Dester - opdester@freemail.hu~~~~~~~~~~~~~~~~~~~~~~~~~~~~~~~~~~-=== НЕ РЕДАКТИРУЙТЕ ЭТОТ ФАЙЛ! ===-
Путь: ...\Рождество - Светлый ангел (2011) Flac (UA)
1 -=- Рождество - Светлый ангел.flac -=- CDDA (100%)
107838340

2011 - Светлый ангел

Продолжительность: 01:18:28
Издатель (лейбл): Студия Андрея Насырова
01. Карандаши [ 02:59 ]
02. Казачья песня [ 03:24 ]
03. Улетают птицы [ 05:02 ]
04. Светлый ангел [ 04:14 ]
05. Расходились-расставались [ 03:16 ]
06. Лето-лето [ 05:05 ]
07. Лейся, песня! [ 05:10 ]
08. Найти тебя [ 05:41 ]
09. На канале в Тушино [ 04:18 ]
10. Кто здесь? [ 04:00 ]
11. Новый год, Новый год! [ 04:30 ]
12. Каюсь
[ 04:07 ]
Бонус:
13. Молодость [ 04:58 ]
14. Твои глаза [ 04:31 ]
15. Белая, белая [ 05:05 ]
16. Так хочется жить [ 04:08 ]
17. Зимний вечер [ 04:52 ]
18. Вот так!
[ 03:00 ]

Лог извлечения рипа

Exact Audio Copy V1.0 beta 1 from 15. November 2010
Отчёт EAC об извлечении, выполненном 4. сентября 2011, 15:19
гр.Рождество / Светлый ангел
Дисковод: Optiarc DVD RW AD-7173A Adapter: 0 ID: 0
Режим чтения : ДостоверностьИспользование точного потока : ДаОтключение кэша аудио : ДаИспользование указателей C2 : Нет
Коррекция смещения при чтении : 48Способность читать области Lead-in и Lead-out : НетЗаполнение пропущенных сэмплов тишиной : ДаУдаление блоков с тишиной в начале и конце : НетПри вычислениях CRC использовались нулевые сэмплы : ДаИнтерфейс : Установленный внешний ASPI-интерфейс
Выходной формат : Внутренние WAV-операцииФормат сэмплов : 44.100 Гц; 16 бит; стерео
TOC извлечённого CD
Трек | Старт | Длительность | Начальный сектор | Конечный сектор --------------------------------------------------------------------- 1 | 0:00.00 | 2:59.27 | 0 | 13451 2 | 2:59.27 | 3:24.14 | 13452 | 28765 3 | 6:23.41 | 5:02.72 | 28766 | 51487 4 | 11:26.38 | 4:14.47 | 51488 | 70584 5 | 15:41.10 | 3:16.50 | 70585 | 85334 6 | 18:57.60 | 5:05.17 | 85335 | 108226 7 | 24:03.02 | 5:10.58 | 108227 | 131534 8 | 29:13.60 | 5:41.36 | 131535 | 157145 9 | 34:55.21 | 4:18.73 | 157146 | 176568 10 | 39:14.19 | 4:00.31 | 176569 | 194599 11 | 43:14.50 | 4:30.48 | 194600 | 214897 12 | 47:45.23 | 4:07.20 | 214898 | 233442 13 | 51:52.43 | 4:58.53 | 233443 | 255845 14 | 56:51.21 | 4:31.43 | 255846 | 276213 15 | 61:22.64 | 5:05.04 | 276214 | 299092 16 | 66:27.68 | 4:08.06 | 299093 | 317698 17 | 70:35.74 | 4:52.21 | 317699 | 339619 18 | 75:28.20 | 3:00.06 | 339620 | 353125
Характеристики диапазона извлечения и сообщения об ошибках
Выбранный диапазон
Имя файла C:\Documents and Settings\Admin\Рабочий стол\гр.Рождество - Светлый ангел (2011г.)\гр.Рождество - Светлый ангел.wav
Пиковый уровень 100.0 %0.0 X Качество диапазона 99.9 % CRC теста E55B9E1F CRC копии E55B9E1F Копирование... OK
Ошибок не произошло
AccurateRip: сводка
Трек 1 нет в базе данныхТрек 2 нет в базе данныхТрек 3 нет в базе данныхТрек 4 нет в базе данныхТрек 5 нет в базе данныхТрек 6 нет в базе данныхТрек 7 нет в базе данныхТрек 8 нет в базе данныхТрек 9 нет в базе данныхТрек 10 нет в базе данныхТрек 11 нет в базе данныхТрек 12 нет в базе данныхТрек 13 нет в базе данныхТрек 14 нет в базе данныхТрек 15 нет в базе данныхТрек 16 нет в базе данныхТрек 17 нет в базе данныхТрек 18 нет в базе данных
Ни одного трека нет в базе AccurateRip
Конец отчёта

Лог проверки качества

AUDIOCHECKER v2.0 beta (build 457) - by Dester - opdester@freemail.hu~~~~~~~~~~~~~~~~~~~~~~~~~~~~~~~~~~-=== НЕ РЕДАКТИРУЙТЕ ЭТОТ ФАЙЛ! ===-
Путь: ...\гр. Рождество - Светлый ангел (2011) Flac
1 -=- гр.Рождество - Светлый ангел.flac -=- CDDA (99%)
118890532

2012 - Под какой звездой...

Продолжительность: 01:14:58
Издатель (лейбл): Golden Music
01. Под какой звездой... [04:28]
02. Нагадай мне, мама [05:13]
03. Цветы для Маши [03:42]
04. Моя весна [04:52]
05. Кама Сутра [04:09]
06. Два товарища [04:33]
07. Бродить вдоль берегов [04:07]
08. Груши мои груши [03:09]
09. Почему [04:31]
10. Олимпийцы в Сочи [03:26]
11. Ромашка [05:31]
12. Чики Чики Бум [04:30]
13. Встреча и разлука [04:56]
14. Гони туда [03:54]
15. Молодость (bonus) [04:59]
16. На канале в Тушино (bonus) [04:20]
17. Новый Год. Новый Год! (remix) bonus [04:31]

Лог извлечения рипа

Exact Audio Copy V1.0 beta 1 from 15. November 2010
Отчёт EAC об извлечении, выполненном 9. декабря 2012, 13:03
Рождество / Под какой звездой ...
Дисковод: ASUS DRW-24B3ST Adapter: 0 ID: 1
Режим чтения : ДостоверностьИспользование точного потока : ДаОтключение кэша аудио : ДаИспользование указателей C2 : Нет
Коррекция смещения при чтении : 6Способность читать области Lead-in и Lead-out : НетЗаполнение пропущенных сэмплов тишиной : ДаУдаление блоков с тишиной в начале и конце : НетПри вычислениях CRC использовались нулевые сэмплы : ДаИнтерфейс : Встроенный Win32-интерфейс для Win NT/2000
Выходной формат : Пользовательский кодировщикВыбранный битрейт : 896 kBit/sКачество : ВысокийДобавление ID3-тэга : НетУтилита сжатия : C:\Program Files\FLAC\flac.exeДополнительные параметры : -T "DATE=%y" -T "GENRE=%m" -8 -V %s
TOC извлечённого CD
Трек | Старт | Длительность | Начальный сектор | Конечный сектор --------------------------------------------------------------------- 1 | 0:00.00 | 4:28.27 | 0 | 20126 2 | 4:28.27 | 5:13.58 | 20127 | 43659 3 | 9:42.10 | 3:42.26 | 43660 | 60335 4 | 13:24.36 | 4:52.17 | 60336 | 82252 5 | 18:16.53 | 4:09.72 | 82253 | 100999 6 | 22:26.50 | 4:33.43 | 101000 | 121517 7 | 27:00.18 | 4:07.09 | 121518 | 140051 8 | 31:07.27 | 3:09.37 | 140052 | 154263 9 | 34:16.64 | 4:31.15 | 154264 | 174603 10 | 38:48.04 | 3:26.71 | 174604 | 190124 11 | 42:15.00 | 5:31.23 | 190125 | 214972 12 | 47:46.23 | 4:30.46 | 214973 | 235268 13 | 52:16.69 | 4:56.08 | 235269 | 257476 14 | 57:13.02 | 3:54.33 | 257477 | 275059 15 | 61:07.35 | 4:59.31 | 275060 | 297515 16 | 66:06.66 | 4:20.12 | 297516 | 317027 17 | 70:27.03 | 4:31.10 | 317028 | 337362
Характеристики диапазона извлечения и сообщения об ошибках
Выбранный диапазон
Имя файла D:\trofim\Рождество - Под какой звездой ....wav
Пиковый уровень 100.0 %0.5 X Качество диапазона 99.9 % CRC теста D179159F CRC копии D179159F Копирование... OK
Ошибок не произошло
AccurateRip: сводка
Трек 1 нет в базе данныхТрек 2 нет в базе данныхТрек 3 нет в базе данныхТрек 4 нет в базе данныхТрек 5 нет в базе данныхТрек 6 нет в базе данныхТрек 7 нет в базе данныхТрек 8 нет в базе данныхТрек 9 нет в базе данныхТрек 10 нет в базе данныхТрек 11 нет в базе данныхТрек 12 нет в базе данныхТрек 13 нет в базе данныхТрек 14 нет в базе данныхТрек 15 нет в базе данныхТрек 16 нет в базе данныхТрек 17 нет в базе данных
Ни одного трека нет в базе AccurateRip
Конец отчёта

Лог проверки качества

AUDIOCHECKER v2.0 beta (build 457) - by Dester - opdester@freemail.hu~~~~~~~~~~~~~~~~~~~~~~~~~~~~~~~~~~-=== НЕ РЕДАКТИРУЙТЕ ЭТОТ ФАЙЛ! ===-
Путь: ...\trofim
1 -=- Рождество - Под какой звездой ....flac -=- CDDA (100%)
44672052

2013 - А я верю

Продолжительность: 01:09:24
Издатель (лейбл): Монолит
01. Вера без дела мертва [03:46]
02. Дом тебе и мне [03:01]
03. Где ты, моя женщина [03:57]
04. Под одними облаками [04:17]
05. Видно что-то не так [04:06]
06. Красные тюльпаны [04:31]
07. Кто ты для меня [04:30]
08. До самого дна [03:26]
09. Я рисую Родину [04:02]
10. Дальняя дорога [04:22]
11. Гламуровна [03:25]
12. А я верю [04:06]
Bonus:
13. Так хочется жить [04:05]
14. Молодость [04:57]
15. Груши [03:07]
16. Ромашка [05:30]
17. Каюсь [04:09]

Лог извлечения рипа

Exact Audio Copy V1.0 beta 1 from 15. November 2010
Отчёт EAC об извлечении, выполненном 4. декабря 2013, 22:57
группа Рождество / А я верю
Дисковод: _NEC DV-5800E Adapter: 0 ID: 1
Режим чтения : ДостоверностьИспользование точного потока : ДаОтключение кэша аудио : ДаИспользование указателей C2 : Нет
Коррекция смещения при чтении : 6Способность читать области Lead-in и Lead-out : НетЗаполнение пропущенных сэмплов тишиной : ДаУдаление блоков с тишиной в начале и конце : НетПри вычислениях CRC использовались нулевые сэмплы : ДаИнтерфейс : Установленный внешний ASPI-интерфейс
Выходной формат : Внутренние WAV-операцииФормат сэмплов : 44.100 Гц; 16 бит; стерео
TOC извлечённого CD
Трек | Старт | Длительность | Начальный сектор | Конечный сектор --------------------------------------------------------------------- 1 | 0:00.00 | 3:46.44 | 0 | 16993 2 | 3:46.44 | 3:01.25 | 16994 | 30593 3 | 6:47.69 | 3:56.73 | 30594 | 48366 4 | 10:44.67 | 4:17.54 | 48367 | 67695 5 | 15:02.46 | 4:06.04 | 67696 | 86149 6 | 19:08.50 | 4:31.26 | 86150 | 106500 7 | 23:40.01 | 4:30.39 | 106501 | 126789 8 | 28:10.40 | 3:26.08 | 126790 | 142247 9 | 31:36.48 | 4:02.64 | 142248 | 160461 10 | 35:39.37 | 4:22.46 | 160462 | 180157 11 | 40:02.08 | 3:24.69 | 180158 | 195526 12 | 43:27.02 | 4:06.27 | 195527 | 214003 13 | 47:33.29 | 4:05.58 | 214004 | 232436 14 | 51:39.12 | 4:57.11 | 232437 | 254722 15 | 56:36.23 | 3:07.05 | 254723 | 268752 16 | 59:43.28 | 5:30.04 | 268753 | 293506 17 | 65:13.32 | 4:09.27 | 293507 | 312208
Характеристики диапазона извлечения и сообщения об ошибках
Выбранный диапазон
Имя файла C:\Documents and Settings\Admin\Рабочий стол\2013 - гр.Рождество - А я верю\группа Рождество - А я верю.wav
Пиковый уровень 100.0 %0.5 X Качество диапазона 99.9 % CRC теста D711A6D8 CRC копии D711A6D8 Копирование... OK
Ошибок не произошло
AccurateRip: сводка
Трек 1 нет в базе данныхТрек 2 нет в базе данныхТрек 3 нет в базе данныхТрек 4 нет в базе данныхТрек 5 нет в базе данныхТрек 6 нет в базе данныхТрек 7 нет в базе данныхТрек 8 нет в базе данныхТрек 9 нет в базе данныхТрек 10 нет в базе данныхТрек 11 нет в базе данныхТрек 12 нет в базе данныхТрек 13 нет в базе данныхТрек 14 нет в базе данныхТрек 15 нет в базе данныхТрек 16 нет в базе данныхТрек 17 нет в базе данных
Ни одного трека нет в базе AccurateRip
Конец отчёта

Лог проверки качества

AUDIOCHECKER v2.0 beta (build 457) - by Dester - opdester@freemail.hu~~~~~~~~~~~~~~~~~~~~~~~~~~~~~~~~~~-=== НЕ РЕДАКТИРУЙТЕ ЭТОТ ФАЙЛ! ===-
Путь: ...\2013 - гр. Рождество - А я верю
1 -=- группа Рождество - А я верю.flac -=- CDDA (100%)
237995524

2015 - Быть или не быть

Продолжительность: 01:09:24
Издатель (лейбл): Монолит
01. Намело сугробы белые 04:09
02. Осень 02:59
03. Колыбельная 04:28
04. Финики-бананы 04:07
05. Молодость (дуэт с Львом Лещенко) 04:12
06. Сон 05:16
07. Любви свеча 04:23
08. К морю 03:11
09. Мы русские люди (дуэт с Жекой) 02:41
10. Быть или не быть 03:18
11. Так хочется жить 04:06
12. До самого дна 03:26
13. Под одними облаками 04:18
14. Карандаши 02:58
15. Гламуровна 03:24
16. Казачья 03:22
17. Я рисую родину 04:03
18. Молодость (remix) 04:56

Лог извлечения рипа

Exact Audio Copy V1.0 beta 1 from 15. November 2010
Отчёт EAC об извлечении, выполненном 28. марта 2015, 19:02
группа Рождество / Быть или не быть
Дисковод: ATAPI iHAP122 W Adapter: 0 ID: 0
Режим чтения : ДостоверностьИспользование точного потока : ДаОтключение кэша аудио : ДаИспользование указателей C2 : Нет
Коррекция смещения при чтении : 6Способность читать области Lead-in и Lead-out : НетЗаполнение пропущенных сэмплов тишиной : ДаУдаление блоков с тишиной в начале и конце : НетПри вычислениях CRC использовались нулевые сэмплы : ДаИнтерфейс : Установленный внешний ASPI-интерфейс
Выходной формат : Внутренние WAV-операцииФормат сэмплов : 44.100 Гц; 16 бит; стерео
TOC извлечённого CD
Трек | Старт | Длительность | Начальный сектор | Конечный сектор --------------------------------------------------------------------- 1 | 0:00.00 | 4:09.09 | 0 | 18683 2 | 4:09.09 | 2:59.64 | 18684 | 32172 3 | 7:08.73 | 4:28.66 | 32173 | 52338 4 | 11:37.64 | 4:07.56 | 52339 | 70919 5 | 15:45.45 | 4:12.22 | 70920 | 89841 6 | 19:57.67 | 5:16.73 | 89842 | 113614 7 | 25:14.65 | 4:23.46 | 113615 | 133385 8 | 29:38.36 | 3:11.53 | 133386 | 147763 9 | 32:50.14 | 2:41.60 | 147764 | 159898 10 | 35:31.74 | 3:18.55 | 159899 | 174803 11 | 38:50.54 | 4:06.49 | 174804 | 193302 12 | 42:57.28 | 3:26.57 | 193303 | 208809 13 | 46:24.10 | 4:18.33 | 208810 | 228192 14 | 50:42.43 | 2:58.51 | 228193 | 241593 15 | 53:41.19 | 3:24.59 | 241594 | 256952 16 | 57:06.03 | 3:22.50 | 256953 | 272152 17 | 60:28.53 | 4:03.03 | 272153 | 290380 18 | 64:31.56 | 4:56.73 | 290381 | 312653
Характеристики диапазона извлечения и сообщения об ошибках
Выбранный диапазон
Имя файла C:\Documents and Settings\Admin\Рабочий стол\2015 - гр.Рождество - Быть или не быть\группа Рождество - Быть или не быть.wav
Пиковый уровень 100.0 %0.1 X Качество диапазона 99.9 % CRC теста BDDE3A21 CRC копии BDDE3A21 Копирование... OK
Ошибок не произошло
AccurateRip: сводка
Трек 1 нет в базе данныхТрек 2 нет в базе данныхТрек 3 нет в базе данныхТрек 4 нет в базе данныхТрек 5 нет в базе данныхТрек 6 нет в базе данныхТрек 7 нет в базе данныхТрек 8 нет в базе данныхТрек 9 нет в базе данныхТрек 10 нет в базе данныхТрек 11 нет в базе данныхТрек 12 нет в базе данныхТрек 13 нет в базе данныхТрек 14 нет в базе данныхТрек 15 нет в базе данныхТрек 16 нет в базе данныхТрек 17 нет в базе данныхТрек 18 нет в базе данных
Ни одного трека нет в базе AccurateRip
Конец отчёта

Лог проверки качества

AUDIOCHECKER v2.0 beta (build 457) - by Dester - opdester@freemail.hu~~~~~~~~~~~~~~~~~~~~~~~~~~~~~~~~~~-=== НЕ РЕДАКТИРУЙТЕ ЭТОТ ФАЙЛ! ===-
Путь: ...\2015 - гр.Рождество - Быть или не быть
1 -=- группа Рождество - Быть или не быть.flac -=- CDDA (100%)
114025188
После прослушивания вы обязаны уничтожить данную запись и купить лицензионный диск!
[Профиль] [ЛС]

Создавать темы 13-Авг-2015 11:04 (спустя 2 месяца 12 дней)

Топик был перенесен из форума Шансон и авторская песня в форум Сhanson
sergej644
 
Кто просматривает тему:

Показать сообщения:    

Текущее время: Сегодня 06:05

Часовой пояс: GMT



Вы не можете начинать темы
Вы не можете отвечать на сообщения
Вы не можете редактировать свои сообщения
Вы не можете удалять свои сообщения
Вы не можете голосовать в опросах
Вы не можете прикреплять файлы к сообщениям
Вы не можете скачивать файлы