Шальные деньги / Snabba cash (Дэниэль Эспиноза / Daniel Espinosa) [2010, Швеция, Германия, Дания, криминал, HDRip] MVO (Первый канал)

 
Автор Сообщение

TorrentFilm ®

Пол:

Стаж: 2 года

Сообщений: 7741



Награды: Нет

Торрент-статистика

Создавать темы 07-Июн-2015 00:04

[Цитировать]

Шальные деньги
Snabba cash

Страна: Швеция, Германия, Дания
Жанр: криминал
Год выпуска: 2010
Продолжительность: 02:04:14-Перевод: Профессиональный (многоголосый закадровый)
Первый канал

Cубтитры: нет
Оригинальная аудиодорожка: нет-Режиссер: Дэниэль Эспиноза / Daniel Espinosa
В ролях: Юэль Чиннаман, Матиас Падин Варела, Драгомир Мрсич, Лиза Хенни, Махмут Суварчи, Джонс Данко, Деян Чукич, Миодраг Стоянович-Описание: Стокгольмский таксист, решивший подработать, соглашается на предложение своего босса начать торговать кокаином. Постепенно в дело оказываются замешаны: югославская мафия, сбежавший из тюрьмы латиноамериканец, работавший на эту мафию, и серб, мечтающий покончить с криминальной жизнью-Доп. информация: Видео скачано с рутора, спасибо Scarabey
О переводе: Перевод на трекере появляется впервые
Качество: цифровой эфир (Первый канал)
Имеется вставка с лицензии: 00:37:57 - фраза: Отмывание денег
Исходник и синхронизация: mister55555-Сэмпл: 2минуты27сек-Качество видео: HDRip
Формат видео: AVI
Видео: XVID, 720х304, 2,35:1, 24,000 кадра/сек, 1467 Кбит/сек
Аудио: AC-3, 48,0 КГц, 192 Кбит/сек, 2 канала (многоголосый Первый канал)

MediaInfo

Общее
Полное имя : D:\с диска Е\инет\Раздачи\Шальные деньги.2010.1канал\Шальные деньги.2010.1канал.avi
Формат : AVI
Формат/Информация : Audio Video Interleave
Размер файла : 1,45 Гбайт
Продолжительность : 2 ч. 4 м.
Общий поток : 1668 Кбит/сек
Программа кодирования : VirtualDubModRus 1.5.10.2 (build 2542/release)
Библиотека кодирования : VirtualDubMod build 2542/release
Видео
Идентификатор : 0
Формат : MPEG-4 Visual
Профиль формата : Advanced Simple@L5
Параметр BVOP формата : 1
Параметр QPel формата : Нет
Параметр GMC формата : Без точки перехода
Параметр матрицы формата : Выборочная
Идентификатор кодека : XVID
Идентификатор кодека/Подсказка : XviD
Продолжительность : 2 ч. 4 м.
Битрейт : 1467 Кбит/сек
Ширина : 720 пикселей
Высота : 304 пикселя
Соотношение сторон : 2,35:1
Частота кадров : 24,000 кадра/сек
Цветовое пространство : YUV
Субдискретизация насыщенности : 4:2:0
Битовая глубина : 8 бит
Тип развёртки : Прогрессивная
Метод сжатия : С потерями
Бит/(Пиксели*Кадры) : 0.279
Размер потока : 1,27 Гбайт (88%)
Библиотека кодирования : XviD 73
Аудио
Идентификатор : 1
Формат : AC-3
Формат/Информация : Audio Coding 3
Расширение режима : CM (complete main)
Параметр Endianness формата : Big
Идентификатор кодека : 2000
Продолжительность : 2 ч. 4 м.
Вид битрейта : Постоянный
Битрейт : 192 Кбит/сек
Каналы : 2 канала
Расположение каналов : Front: L R
Частота : 48,0 КГц
Метод сжатия : С потерями
Размер потока : 171 Мбайт (12%)
Выравнивание : Разделение по промежуткам
Продолжительность промежутка : 42 мс. (1,00 видеокадр)
Время предзагрузки промежутка : 500 мс.
Заголовок : многоголосый Первый канал

Скриншот c названием фильма

[Профиль] [ЛС]

Создавать темы 06-Авг-2015 22:29 (спустя 1 месяц 29 дней)

Топик был перенесен из форума Фильмы до 2014 года в форум Фильмы до 2012 года
sergej644
 

Создавать темы 12-Июн-2016 07:55 (спустя 1 год)

Топик был перенесен из форума Фильмы 2011 года в форум Фильмы 2010 года
Russian Mafia
 
Показать сообщения:    

Текущее время: Сегодня 08:31

Часовой пояс: GMT



Вы не можете начинать темы
Вы не можете отвечать на сообщения
Вы не можете редактировать свои сообщения
Вы не можете удалять свои сообщения
Вы не можете голосовать в опросах
Вы не можете прикреплять файлы к сообщениям
Вы не можете скачивать файлы