Шальные деньги / Easy Money / Snabba cash (Даниэль Эспиноса / Daniel Espinosa) [2010, Швеция, триллер, драма, криминал, HDRip] DVO

 
Автор Сообщение

painkiller ®

Стаж: 2 года 3 месяца

Сообщений: 582



Награды: Нет

Торрент-статистика

Создавать темы 15-Авг-2014 10:17

[Цитировать]

Шальные деньги / Easy Money / Snabba cash
Страна: Швеция
Жанр: триллер, драма, криминал
Год выпуска: 2010
Продолжительность: 02:04:14
Перевод: Профессиональный (двухголосый закадровый) | Лицензия
Cубтитры: нет
Оригинальная аудиодорожка: нет
Режиссер: Даниэль Эспиноса / Daniel Espinosa
В ролях: Юэль Киннаман, Матиас Падин, Драгомир Мрсич, Лиза Хенни, Махмут Сувакси, Джонс Данко, Лиа Стоянов, Деян Чукич, Миодраг Стоянович, Юэль Спира
Описание: Стокгольмский таксист, решивший подработать, соглашается на предложение своего босса начать торговать кокаином. Постепенно в дело оказываются замешаны югославская мафия, сбежавший из тюрьмы латиноамериканец, на эту мафию работавший, и серб, мечтающий покончить с криминальной жизнью.

Сэмпл: http://sendfile.su/954100
Качество видео: HDRip
Формат видео: AVI
Видео: XviD 73, 640x272 (2.35:1), 24.000 fps, 703 Kbps
Аудио: MP3, 48.0 kHz, 128 Kbps, 2 ch, CBR
Релиз от: Scarabey

MediaInfo

Общее
Полное имя                               : Easy.Money.2010.HDRip.avi
Формат                                   : AVI
Формат/Информация                        : Audio Video Interleave
Размер файла                             : 747 Мбайт
Продолжительность                        : 2 ч. 4 м.
Общий поток                              : 840 Кбит/сек
Программа кодирования                    : VirtualDubMod 1.5.10.3 | www.virtualdub-fr.org || (build 2550/release)
Библиотека кодирования                   : VirtualDubMod build 2550/release
Видео
Идентификатор                            : 0
Формат                                   : MPEG-4 Visual
Профиль формата                          : Advanced Simple@L5
Параметр BVOP формата                    : 1
Параметр QPel формата                    : Нет
Параметр GMC формата                     : Без точки перехода
Параметр матрицы формата                 : Выборочная
Идентификатор кодека                     : XVID
Идентификатор кодека/Подсказка           : XviD
Продолжительность                        : 2 ч. 4 м.
Битрейт                                  : 703 Кбит/сек
Ширина                                   : 640 пикселей
Высота                                   : 272 пикселя
Соотношение сторон                       : 2,35:1
Частота кадров                           : 24,000 кадра/сек
Цветовое пространство                    : YUV
Субдискретизация насыщенности            : 4:2:0
Битовая глубина                          : 8 бит
Тип развёртки                            : Прогрессивная
Метод сжатия                             : С потерями
Бит/(Пиксели*Кадры)                      : 0.168
Размер потока                            : 625 Мбайт (84%)
Библиотека кодирования                   : XviD 73
Аудио
Идентификатор                            : 1
Формат                                   : MPEG Audio
Версия формата                           : Version 1
Профиль формата                          : Layer 3
Идентификатор кодека                     : 55
Идентификатор кодека/Подсказка           : MP3
Продолжительность                        : 2 ч. 4 м.
Вид битрейта                             : Постоянный
Битрейт                                  : 128 Кбит/сек
Каналы                                   : 2 канала
Частота                                  : 48,0 КГц
Метод сжатия                             : С потерями
Размер потока                            : 114 Мбайт (15%)
Выравнивание                             : Соединение по промежуткам
Продолжительность промежутка             : 42  мс. (1,00 видеокадр)
Время предзагрузки промежутка            : 504  мс.
Библиотека кодирования                   : LAME3.99r
Настройки программы                      : -m s -V 4 -q 2 -lowpass 17 -b 128

Скриншот c названием фильма

Скриншоты

[Профиль] [ЛС]

Создавать темы 06-Авг-2015 23:10 (спустя 11 месяцев 22 дня)

Топик был перенесен из форума Фильмы до 2014 года в форум Фильмы до 2012 года
sergej644
 

Создавать темы 12-Июн-2016 07:54 (спустя 1 год 9 месяцев)

Топик был перенесен из форума Фильмы 2011 года в форум Фильмы 2010 года
Russian Mafia
 
Показать сообщения:    

Текущее время: Сегодня 22:21

Часовой пояс: GMT



Вы не можете начинать темы
Вы не можете отвечать на сообщения
Вы не можете редактировать свои сообщения
Вы не можете удалять свои сообщения
Вы не можете голосовать в опросах
Вы не можете прикреплять файлы к сообщениям
Вы не можете скачивать файлы