Шальные деньги / Snabba Cash (Дэниэл Эспиноза / Daniel Espinoza) [2010, Швеция, триллер, драма, криминал, HDRip] MVO

 
Автор Сообщение

reversefile ®

Пол:

Стаж: 4 года 5 месяцев

Сообщений: 842

Откуда: ReverseFile.org



Награды: Нет

Торрент-статистика

Создавать темы 13-Авг-2014 10:09

[Цитировать]

Шальные деньги / Snabba Cash
Страна: Швеция
Жанр: триллер, драма, криминал
Год выпуска: 2010
Продолжительность: 02:04:14
Перевод: Профессиональный (многоголосый закадровый)
Cубтитры: нет
Режиссер: Дэниэл Эспиноза / Daniel Espinoza
В ролях: Джоэль Киннаман, Матиас Пэдин Вэрела, Драгомир Мрсик, Лиза Хенни, Махмут Сувакси, Джонс Данко, Лиа Стоянова, Деян Чукич, Миодраг Стоянович, Джоэль Спира
Описание: Стокгольмский таксист, решивший подработать, соглашается на предложение своего босса начать торговать кокаином. Постепенно в дело оказываются замешаны югославская мафия, сбежавший из тюрьмы латиноамериканец, на эту мафию работавший, и серб, мечтающий покончить с криминальной жизнью.

Сэмпл: http://www.sendspace.com/file/j2atzv
Качество видео: HDRip
Формат видео: AVI
Видео: 720x304 (2.37:1), 25 fps, XviD build 50, 1440 kbps avg, 0.26 bit/pixel
Аудио: 48 kHz, MPEG Layer 3, 2 ch, 128.00 kbps avg

MediaInfo

Общее
Полное имя : E:\Filmi\Shalnye.dengi.2010.P.HDRip.2100MB.avi
Формат : AVI
Формат/Информация : Audio Video Interleave
Размер файла : 1,37 Гбайт
Продолжительность : 2 ч. 4 м.
Общий поток : 1579 Кбит/сек
Программа кодирования : VirtualDubMod 1.5.10.3 | www.virtualdub-fr.org || (build 2550/release)
Библиотека кодирования : VirtualDubMod build 2550/release
Видео
Идентификатор : 0
Формат : MPEG-4 Visual
Профиль формата : Advanced Simple@L5
Параметр BVOP формата : 2
Параметр QPel формата : Нет
Параметр GMC формата : Без точки перехода
Параметр матрицы формата : Default (H.263)
Идентификатор кодека : XVID
Идентификатор кодека/Подсказка : XviD
Продолжительность : 2 ч. 4 м.
Битрейт : 1441 Кбит/сек
Ширина : 720 пикселей
Высота : 304 пикселя
Соотношение сторон : 2,35:1
Частота кадров : 25,000 кадров/сек
Цветовое пространство : YUV
Субдискретизация насыщенности : 4:2:0
Битовая глубина : 8 бит
Тип развёртки : Прогрессивная
Метод сжатия : С потерями
Бит/(Пиксели*Кадры) : 0.263
Размер потока : 1,25 Гбайт (91%)
Библиотека кодирования : XviD 1.2.1 (UTC 2008-12-04)
Аудио
Идентификатор : 1
Формат : MPEG Audio
Версия формата : Version 1
Профиль формата : Layer 3
Идентификатор кодека : 55
Идентификатор кодека/Подсказка : MP3
Продолжительность : 2 ч. 4 м.
Вид битрейта : Постоянный
Битрейт : 128 Кбит/сек
Каналы : 2 канала
Частота : 48,0 КГц
Метод сжатия : С потерями
Размер потока : 114 Мбайт (8%)
Выравнивание : Соединение по промежуткам
Продолжительность промежутка : 40 мс. (1,00 видеокадр)
Время предзагрузки промежутка : 504 мс.
Библиотека кодирования : LAME3.99r
Настройки программы : -m s -V 4 -q 2 -lowpass 17 -b 128

Скриншот c названием фильма

Скриншоты

[Профиль] [ЛС]

Создавать темы 06-Авг-2015 23:17 (спустя 11 месяцев 24 дня)

Топик был перенесен из форума Фильмы до 2014 года в форум Фильмы до 2012 года
sergej644
 

Создавать темы 12-Июн-2016 07:54 (спустя 1 год 9 месяцев)

Топик был перенесен из форума Фильмы 2011 года в форум Фильмы 2010 года
Russian Mafia
 
Показать сообщения:    

Текущее время: Сегодня 22:30

Часовой пояс: GMT



Вы не можете начинать темы
Вы не можете отвечать на сообщения
Вы не можете редактировать свои сообщения
Вы не можете удалять свои сообщения
Вы не можете голосовать в опросах
Вы не можете прикреплять файлы к сообщениям
Вы не можете скачивать файлы