Шальное ранение / Blunt Force Trauma (2015) DVD-5 от NovaLan | D

 
Автор Сообщение

BOSS ®

Пол:

Стаж: 2 года 1 месяц

Сообщений: 3732

Откуда: ODESSA



Награды: 20 (Подробнее)

Top Keeper 1 (Количество: 1) Mega Seeder 2 (Количество: 1) Top Seeder 4 (Количество: 1)
Торрент-статистика

Создавать темы 21-Авг-2016 04:53

[Цитировать]

Информация о фильме
Название: Шальное ранение
Оригинальное название: Blunt Force Trauma
Год выхода: 2015
Жанр: Боевик, приключения
Режиссер: Кен Сэнзел
В ролях: Райан Квантен, Фрида Пинто, Микки Рурк, Джон Мак, Джейсон Гибсон, Каролина Гомес, Дэвид Виллада, Мария Шелтон, Рубен Самора, Стивен Галарсе
О фильме: Джон и Кольт - очень отчаянная пара и привыкли к опасности. Самое невероятное заключается в том, что в самых опасных и экстремальных ситуациях у них находится время для любви. Они являются одновременно и напарниками и любовниками, но рано или поздно им придется сделать выбор и понять, что для них более важно: деньги или чувства.
Страна: Колумбия
Студия: ETA Films
Продолжительность: 01:36:45
Перевод: Дублированный
Файл
Кодек: MPEG-2
Качество: DVD-9
Видео: MPEG2, NTSC 16:9 (720x480@853x480) VBR, 29,970 кадров/сек
Звук: Русский DD 2.0 (192 Kbps), Английский DD 5.1 (384 Kbps)

Меню

DVDInfo

Title:
Size: 4.37 Gb ( 4 577 662 KBytes ) - DVD-5
Enabled regions: 1, 2, 3, 4, 5, 6, 7, 8
VTS_01 :
Play Length: 01:36:45
Video: NTSC 16:9 (720x480) VBR, Auto Pan&Scan
Audio:
Russian (Dolby AC3, 2 ch)
English (Dolby AC3, 6 ch)
Menu Video:
NTSC 4:3 (704x480) VBR
Menu English Language Unit :
Root Menu

MediaInfo

Общее
Полное имя : D:ААА2ШАЛЬНОЕ РАНЕНИЕVIDEO_TSVTS_01_1.VOB
Формат : MPEG-PS
Размер файла : 1024 Мбайт
Продолжительность : 23 м.
Режим общего битрейта : Переменный
Общий поток : 6125 Кбит/сек
Библиотека кодирования : Created by Nero
Видео
Идентификатор : 224 (0xE0)
Формат : MPEG Video
Версия формата : Version 2
Профиль формата : Main@Main
Параметр BVOP формата : Да
Параметр матрицы формата : Выборочная
Параметр GOP формата : Variable
Продолжительность : 23 м.
Вид битрейта : Переменный
Битрейт : 5364 Кбит/сек
Максимальный битрейт : 9641 Кбит/сек
Ширина : 720 пикселей
Высота : 480 пикселей
Соотношение сторон : 16:9
Частота кадров : 29,970 кадров/сек
Стандарт вещания : NTSC
Цветовое пространство : YUV
Субдискретизация насыщенности : 4:2:0
Битовая глубина : 8 бит
Тип развёртки : Прогрессивная
Порядок развёртки : Нижнее поле первое
Метод сжатия : С потерями
Бит/(Пиксели*Кадры) : 0.518
TimeCode_FirstFrame : 00:00:00:00
TimeCode_Source : Group of pictures header
Размер потока : 897 Мбайт (88%)
Библиотека кодирования : Created by Nero
Аудио #1
Идентификатор : 189 (0xBD)-128 (0x80)
Формат : AC-3
Формат/Информация : Audio Coding 3
Расширение режима : CM (complete main)
Параметр Endianness формата : Big
Режим смешивания : DVD-Video
Продолжительность : 23 м.
Вид битрейта : Постоянный
Битрейт : 192 Кбит/сек
Каналы : 2 канала
Расположение каналов : Front: L R
Частота : 48,0 КГц
Битовая глубина : 16 бит
Метод сжатия : С потерями
Размер потока : 32,1 Мбайт (3%)
Аудио #2
Идентификатор : 189 (0xBD)-129 (0x81)
Формат : AC-3
Формат/Информация : Audio Coding 3
Расширение режима : CM (complete main)
Параметр Endianness формата : Big
Режим смешивания : DVD-Video
Продолжительность : 23 м.
Вид битрейта : Постоянный
Битрейт : 448 Кбит/сек
Каналы : 6 каналов
Расположение каналов : Front: L C R, Side: L R, LFE
Частота : 48,0 КГц
Битовая глубина : 16 бит
Метод сжатия : С потерями
Размер потока : 74,9 Мбайт (7%)
Меню

Скриншоты

[Профиль] [ЛС]
Показать сообщения:    

Текущее время: Сегодня 08:34

Часовой пояс: GMT



Вы не можете начинать темы
Вы не можете отвечать на сообщения
Вы не можете редактировать свои сообщения
Вы не можете удалять свои сообщения
Вы не можете голосовать в опросах
Вы не можете прикреплять файлы к сообщениям
Вы не можете скачивать файлы