Шальное ранение / Blunt Force Trauma (2015) HDRip | D

 
Автор Сообщение

BOSS ®

Пол:

Стаж: 2 года 1 месяц

Сообщений: 3726

Откуда: ODESSA



Награды: 20 (Подробнее)

Mega Seeder 4 (Количество: 1) Top Seeder 4 (Количество: 1) Mega Seeder 3 (Количество: 1)
Торрент-статистика

Создавать темы 27-Май-2016 04:48

[Цитировать]

Шальное ранение / Blunt Force Trauma
Страна: Колумбия
Производство: ETA Films
Год выпуска: 2015
Жанр: боевик
Продолжительность: 01:36:37
Режиссер: Кен Сэнзел
Автор сценария: Кен Сэнзел
В ролях: Райан Квантен, Фрида Пинто, Микки Рурк, Джон Мак, Каролина Гомес, Джейсон Гибсон, Рубен Самора, Стивен Галарсе
Описание: Джон и Кольт — очень отчаянная пара и привыкли к опасности. Самое невероятное заключается в том, что в самых опасных и экстремальных ситуациях у них находится время для любви. Они являются одновременно и напарниками и любовниками, но рано или поздно им придется сделать выбор и понять, что для них более важно: деньги или чувства...

Перевод: Профессиональный (полное дублирование) | официальный звук
Субтитры: нет-Качество: HDRip
Формат: АVI
Видео кодек: XviD
Аудио кодек: АС3
Видео: 720x400 (16:9), 23.976 fps, XviD ~1 632 kbps avg, 0.236 bit/pixel
Аудио: 48.0 kHz, AC3 Dolby Digital, 2/0 (L,R) ch, ~192 kbps
Дата премьеры (мир): 20 июля 2015

Media Info

General
Format : AVI
Format/Info : Audio Video Interleave
Overall bit rate : 1 835 Kbps
Writing application : VirtualDubMod 1.5.10.3 | (build 2550/release)
Writing library : VirtualDubMod build 2550/release
Video
ID : 0
Format : MPEG-4 Visual
Format profile : Advanced Simple@L5
Format settings, BVOP : 2
Format settings, QPel : No
Format settings, GMC : No warppoints
Format settings, Matrix : Default (MPEG)
Codec ID : XVID
Codec ID/Hint : XviD
Bit rate : 1 632 Kbps
Width : 720 pixels
Height : 400 pixels
Display aspect ratio : 16:9
Frame rate : 23.976 fps
Color space : YUV
Chroma subsampling : 4:2:0
Bit depth : 8 bits
Scan type : Progressive
Compression mode : Lossy
Bits/(Pixel*Frame) : 0.236
Stream size : 12.4 MiB (89%)
Writing library : XviD 1.2.1 (UTC 2008-12-04)
Audio
ID : 1
Format : AC-3
Format/Info : Audio Coding 3
Mode extension : CM (complete main)
Format settings, Endianness : Big
Codec ID : 2000
Bit rate mode : Constant
Bit rate : 192 Kbps
Channel(s) : 2 channels
Channel positions : Front: L R
Sampling rate : 48.0 KHz
Compression mode : Lossy
Stream size : 1.46 MiB (10%)
Alignment : Split accross interleaves
Interleave, duration : 42 ms (1.01 video frame)
Interleave, preload duration : 500 ms

Скриншоты

[Профиль] [ЛС]
Показать сообщения:    

Текущее время: Сегодня 12:48

Часовой пояс: GMT



Вы не можете начинать темы
Вы не можете отвечать на сообщения
Вы не можете редактировать свои сообщения
Вы не можете удалять свои сообщения
Вы не можете голосовать в опросах
Вы не можете прикреплять файлы к сообщениям
Вы не можете скачивать файлы