Шальная карта / Wild Card ( Саймон Уэст / Simon West) [20154, боевик, триллер, драма, BDRip] 1080p | L1

 
Автор Сообщение

sergej644 ®

Пол:

Стаж: 4 года 11 месяцев

Сообщений: 6038

Откуда: Soviet Union



Награды: Нет

Торрент-статистика

Создавать темы 20-Мар-2015 13:53

[Цитировать]

Информация о фильме
Название: Шальная карта
Оригинальное название: Wild Card
Год выхода: 2015
Жанр: боевик, триллер, драма, криминал
Режиссер: Саймон Уэст / Simon West
В ролях: Джейсон Стэйтем (Nick Wild), Майкл Ангарано (Cyrus Kinnick), Майло Вентимилья (Danny DeMarco), Доминик Гарсиа-Лоридо (Holly), Энн Хеч (Roxy), София Вергара (DD), Макс Казелла (Osgood), Джейсон Александр (Pinky), Хоуп Дэвис (Cassandra), Стэнли Туччи (Baby), Франсуа Винчентелли (Benny), Крис Браунинг (Tiel)
О фильме:
Главный герой - бывший военный Ник Эскаланте - работает в Лас-Вегасе охранником, мечтает накопить денег и навсегда уехать на остров Корсика. Но Ник соглашается помочь проститутке Холли, постоянно подвергающейся насилию со стороны сына крупного гангстера, из-за чего его отъезд откладывается.

Страна: США, Lionsgate
Продолжительность: 01:32:20
Перевод: Любительский (одноголосый закадровый) | Михаил Яроцкий (kyberpunk)
Файл
Кодек: x.264
Качество: BDRip 1080p
Видео: 1920x800, 23.976 fps, 12800 kbps avg
Аудио 1: 48 kHz, AC3 Dolby Digital, 3/2 (L,C,R,l,r) + LFE ch, ~384.00 kbps avg Михаил Яроцкий (kyberpunk)
Аудио 2: 48 kHz, AC3 Dolby Digital, 3/2 (L,C,R,l,r) + LFE ch, ~640.00 kbps avg (английский)
Субтитры: русские, английские

Скриншоты

MI

Общее
Формат : Matroska
Версия формата : Version 2
Размер файла : 9,09 Гбайт
Продолжительность : 1 ч. 32 м.
Общий поток : 14,1 Мбит/сек
Название фильма : Шальная карта / Wild Card (2015) BDRip 1080p от Neofilm
Дата кодирования : UTC 2015-03-20 08:47:59
Программа кодирования : mkvmerge v5.8.0 ('No Sleep / Pillow') built on Sep 2 2012 15:37:04
Библиотека кодирования : libebml v1.2.3 + libmatroska v1.3.0
Видео
Идентификатор : 1
Формат : AVC
Формат/Информация : Advanced Video Codec
Профиль формата : High@L4.1
Параметр CABAC формата : Да
Параметр ReFrames формата : 5 кадров
Идентификатор кодека : V_MPEG4/ISO/AVC
Продолжительность : 1 ч. 32 м.
Битрейт : 12,8 Мбит/сек
Ширина : 1920 пикселей
Высота : 800 пикселей
Соотношение сторон : 2,40:1
Режим частоты кадров : Постоянный
Частота кадров : 23,976 кадра/сек
Цветовое пространство : YUV
Субдискретизация насыщенности : 4:2:0
Битовая глубина : 8 бит
Тип развёртки : Прогрессивная
Бит/(Пиксели*Кадры) : 0.347
Размер потока : 8,25 Гбайт (91%)
Заголовок : Wild Card (2015)
Библиотека кодирования : x264 core 142 r2431+42 c69a006 tMod [8-bit@all X86_64]
Настройки программы : cabac=1 / ref=5 / deblock=1:-3:-3 / analyse=0x3:0x133 / me=umh / subme=9 / psy=1 / fade_compensate=0.00 / psy_rd=1.05:0.00 / mixed_ref=1 / me_range=24 / chroma_me=1 / trellis=2 / 8x8dct=1 / cqm=0 / deadzone=21,11 / fast_pskip=0 / chroma_qp_offset=-2 / threads=18 / lookahead_threads=3 / sliced_threads=0 / nr=0 / decimate=0 / interlaced=0 / bluray_compat=0 / constrained_intra=0 / fgo=0 / bframes=8 / b_pyramid=2 / b_adapt=2 / b_bias=0 / direct=3 / weightb=1 / open_gop=0 / weightp=2 / keyint=250 / keyint_min=23 / scenecut=40 / intra_refresh=0 / rc=crf / mbtree=0 / crf=18.0000 / qcomp=0.70 / qpmin=0:0:0 / qpmax=69:69:69 / qpstep=4 / ip_ratio=1.20 / pb_ratio=1.10 / aq=4:0.70 / aq-sensitivity=10.00 / aq-factor=1.00:1.00:1.00 / aq2=0 / aq3=0
Язык : English
Default : Да
Forced : Нет
Аудио #1
Идентификатор : 2
Формат : AC-3
Формат/Информация : Audio Coding 3
Расширение режима : CM (complete main)
Параметр Endianness формата : Big
Идентификатор кодека : A_AC3
Продолжительность : 1 ч. 32 м.
Вид битрейта : Постоянный
Битрейт : 384 Кбит/сек
Каналы : 6 каналов
Расположение каналов : Front: L C R, Side: L R, LFE
Частота : 48,0 КГц
Битовая глубина : 16 бит
Метод сжатия : С потерями
Размер потока : 254 Мбайт (3%)
Заголовок : Михаил Яроцкий (kyberpunk)
Язык : Russian
Default : Да
Forced : Нет
Аудио #2
Идентификатор : 3
Формат : AC-3
Формат/Информация : Audio Coding 3
Расширение режима : CM (complete main)
Параметр Endianness формата : Big
Идентификатор кодека : A_AC3
Продолжительность : 1 ч. 32 м.
Вид битрейта : Постоянный
Битрейт : 640 Кбит/сек
Каналы : 6 каналов
Расположение каналов : Front: L C R, Side: L R, LFE
Частота : 48,0 КГц
Битовая глубина : 16 бит
Метод сжатия : С потерями
Размер потока : 423 Мбайт (5%)
Язык : English
Default : Нет
Forced : Нет
Текст #1
Идентификатор : 4
Формат : UTF-8
Идентификатор кодека : S_TEXT/UTF8
Идентификатор кодека/Информация : UTF-8 Plain Text
Язык : Russian
Default : Да
Forced : Нет
Текст #2
Идентификатор : 5
Формат : UTF-8
Идентификатор кодека : S_TEXT/UTF8
Идентификатор кодека/Информация : UTF-8 Plain Text
Язык : English
Default : Нет
Forced : Нет
Текст #3
Идентификатор : 6
Формат : UTF-8
Идентификатор кодека : S_TEXT/UTF8
Идентификатор кодека/Информация : UTF-8 Plain Text
Заголовок : SDH
Язык : English
Default : Нет
Forced : Нет
Меню
00:00:00.000 : en:00:00:00.000
00:06:08.658 : en:00:06:08.658
00:14:12.350 : en:00:14:12.350
00:23:21.816 : en:00:23:21.816
00:27:53.296 : en:00:27:53.296
00:33:44.814 : en:00:33:44.814
00:39:56.893 : en:00:39:56.893
00:45:03.532 : en:00:45:03.532
00:49:49.193 : en:00:49:49.193
00:56:36.391 : en:00:56:36.391
01:00:54.317 : en:01:00:54.317
01:05:01.105 : en:01:05:01.105
01:10:29.557 : en:01:10:29.557
01:16:24.787 : en:01:16:24.787
01:21:46.275 : en:01:21:46.275
01:25:39.257 : en:01:25:39.257
Релиз от:
[Профиль] [ЛС]
Показать сообщения:    

Текущее время: Сегодня 06:27

Часовой пояс: GMT



Вы не можете начинать темы
Вы не можете отвечать на сообщения
Вы не можете редактировать свои сообщения
Вы не можете удалять свои сообщения
Вы не можете голосовать в опросах
Вы не можете прикреплять файлы к сообщениям
Вы не можете скачивать файлы