Шальная карта / Wild Card (Саймон Уэст / Simon West) [2015, боевик, триллер, драма, криминал, HDRip]

 
Автор Сообщение

AleksSin ®

Пол:

Стаж: 6 лет

Сообщений: 218



Награды: 4 (Подробнее)

Mega Seeder 4 (Количество: 1) Mega Seeder 1 (Количество: 1) Mega Seeder 2 (Количество: 1)
Торрент-статистика

Создавать темы 19-Мар-2015 19:06

[Цитировать]

Шальная карта / Wild Card
Страна: США, Lionsgate
Жанр: боевик, триллер, драма, криминал
Год выпуска: 2015
Продолжительность: 01:32:20
Перевод 1: Любительский (одноголосый закадровый) | Михаил Яроцкий (kyberpunk)
Перевод 2: Любительский (многоголосый) [Студия "Paradox"]
Cубтитры: русские, английские
Оригинальная аудиодорожка: английский
Режиссер: Саймон Уэст / Simon West
В ролях: Джейсон Стэйтем (Nick Wild), Майкл Ангарано (Cyrus Kinnick), Майло Вентимилья (Danny DeMarco), Доминик Гарсиа-Лоридо (Holly), Энн Хеч (Roxy), София Вергара (DD), Макс Казелла (Osgood), Джейсон Александр (Pinky), Хоуп Дэвис (Cassandra), Стэнли Туччи (Baby), Франсуа Винчентелли (Benny), Крис Браунинг (Tiel)
Описание: Главный герой - бывший военный Ник Эскаланте - работает в Лас-Вегасе охранником, мечтает накопить денег и навсегда уехать на остров Корсика. Но Ник соглашается помочь проститутке Холли, постоянно подвергающейся насилию со стороны сына крупного гангстера, из-за чего его отъезд откладывается.

Качество видео: HDRip (Исх. BDRip 720p)
Формат видео: AVI
Видео кодек: XviD
Аудио кодек: АС3
Видео: 720x304 (2.37:1), 23.976 fps, XviD build 73 ~2199 kbps avg, 0.42 bit/pixel
Аудио 1: 48 kHz, AC3 Dolby Digital, 3/2 (L,C,R,l,r) + LFE ch, ~384.00 kbps avg Михаил Яроцкий (kyberpunk)
Аудио 2: 48 kHz, AC3 Dolby Digital, 2/0 (L,R) ch, ~384.00 kbps avg [Студия "Paradox"]
Аудио 3: 48 kHz, AC3 Dolby Digital, 3/2 (L,C,R,l,r) + LFE ch, ~384.00 kbps avg (английский)

MediaInfo

Общее
Полное имя : S:\Фильмы\Шальная карта. 2015. HDRip. 2.18 (AleksSin)\Шальная карта. 2015. HDRip. (AleksSin).avi
Формат : AVI
Формат/Информация : Audio Video Interleave
Профиль формата : OpenDML
Размер файла : 2,18 Гбайт
Продолжительность : 1 ч. 32 м.
Общий поток : 3375 Кбит/сек
Программа кодирования : VirtualDubModRus 1.5.10.2 (build 2542/release)
Библиотека кодирования : VirtualDubMod build 2542/release
Видео
Идентификатор : 0
Формат : MPEG-4 Visual
Профиль формата : Advanced Simple@L5
Параметр BVOP формата : 1
Параметр QPel формата : Нет
Параметр GMC формата : Без точки перехода
Параметр матрицы формата : Выборочная
Идентификатор кодека : XVID
Идентификатор кодека/Подсказка : XviD
Продолжительность : 1 ч. 32 м.
Битрейт : 2199 Кбит/сек
Ширина : 720 пикс.
Высота : 304 пикс.
Соотношение сторон : 2,35:1
Частота кадров : 23,976 кадр/сек
Цветовое пространство : YUV
Подвыборка цветности : 4:2:0
Битовая глубина : 8 бит
Тип развёртки : Прогрессивная
Метод сжатия : С потерями
Бит/(Пиксели*Кадры) : 0.419
Размер потока : 1,42 Гбайт (65%)
Библиотека кодирования : XviD 73
Аудио #1
Идентификатор : 1
Формат : AC-3
Формат/Информация : Audio Coding 3
Расширение режима : CM (complete main)
Идентификатор кодека : 2000
Продолжительность : 1 ч. 32 м.
Вид битрейта : Постоянный
Битрейт : 384 Кбит/сек
Каналы : 6 каналов
Расположение каналов : Front: L C R, Side: L R, LFE
Частота : 48,0 КГц
Битовая глубина : 16 бит
Метод сжатия : С потерями
Размер потока : 254 Мбайт (11%)
Выравнивание : Разделение по промежуткам
Продолжительность промежутка : 42 мс. (1,00 видеокадр)
Время предзагрузки промежутка : 500 ms
Аудио #2
Идентификатор : 2
Формат : AC-3
Формат/Информация : Audio Coding 3
Расширение режима : CM (complete main)
Идентификатор кодека : 2000
Продолжительность : 1 ч. 32 м.
Вид битрейта : Постоянный
Битрейт : 384 Кбит/сек
Каналы : 2 канала
Расположение каналов : Front: L R
Частота : 48,0 КГц
Битовая глубина : 16 бит
Метод сжатия : С потерями
Размер потока : 254 Мбайт (11%)
Выравнивание : Разделение по промежуткам
Продолжительность промежутка : 42 мс. (1,00 видеокадр)
Время предзагрузки промежутка : 500 ms
Аудио #3
Идентификатор : 3
Формат : AC-3
Формат/Информация : Audio Coding 3
Расширение режима : CM (complete main)
Идентификатор кодека : 2000
Продолжительность : 1 ч. 32 м.
Вид битрейта : Постоянный
Битрейт : 384 Кбит/сек
Каналы : 6 каналов
Расположение каналов : Front: L C R, Side: L R, LFE
Частота : 48,0 КГц
Битовая глубина : 16 бит
Метод сжатия : С потерями
Размер потока : 254 Мбайт (11%)
Выравнивание : Разделение по промежуткам
Продолжительность промежутка : 42 мс. (1,00 видеокадр)
Время предзагрузки промежутка : 500 ms

Скриншоты

[Профиль] [ЛС]
Показать сообщения:    

Текущее время: Сегодня 02:24

Часовой пояс: GMT



Вы не можете начинать темы
Вы не можете отвечать на сообщения
Вы не можете редактировать свои сообщения
Вы не можете удалять свои сообщения
Вы не можете голосовать в опросах
Вы не можете прикреплять файлы к сообщениям
Вы не можете скачивать файлы