Шалун / Little Man / LiTTLEMAN (2006) HDRip | КПК | D

 
Автор Сообщение

Шкипер ®

Пол:

Стаж: 2 года 7 месяцев

Сообщений: 61



Награды: Нет

Торрент-статистика

Создавать темы 20-Окт-2016 17:56

[Цитировать]

Информация о фильме
Название: Шалун
Оригинальное название: Little Man / LiTTLEMAN
Год выхода: 2006
Жанр: Комедия, криминал
Режиссер: Кинен Айвори Уайанс
В ролях: Марлон Уайанс, Шоун Уайанс, Керри Вашингтон, Трэйси Морган, Локлин Манро, Джон Уизерспун, Чазз Пальминтери, Молли Шеннон, Дейв Шеридан, Дэвид Алан Грир
О фильме: Главный герой так мечтает стать отцом, что по ошибке принимает находящегося в бегах маленького и похожего на ребенка воришку за своего брошенного сына. Новоявленный папаша и его жена берут «малыша» к себе в дом и начинают всячески о нем заботиться. Тем временем напарник вора, ограбивший вместе с ним ювелирный магазин, пытается выманить его из новой семьи, чтобы заполучить украденный бриллиант…

Страна: США, Канада
Студия: Revolution Royal Productions Revolution Studios Sony Pictures Entertainment
Продолжительность: 01:40:35
Перевод: Профессиональный (полное дублирование)
Файл
Кодек: h264
Качество: HDRip| КПК
Видео: MPEG4 Video (H264), 416x224 (1.85:1), 23.976fps, 350kbps, 0.16 Bit/Pixel
Звук: AAC-LC, 44100Hz, 2ch, 125kbps
Субтитры: Отсутствуют
Семпл

MI

General
Complete name : D:Изготовление рипаShalun.2006.HDRip.by shkiper.mp4
Format : MPEG-4
Format profile : Base Media
Codec ID : isom
File size : 334 MiB
Duration : 1h 37mn
Overall bit rate mode : Variable
Overall bit rate : 478 Kbps
Encoded date : UTC 2016-10-19 10:54:04
Tagged date : UTC 2016-10-19 10:54:04
Video
ID : 1
Format : AVC
Format/Info : Advanced Video Codec
Format profile : Baseline@L3.0
Format settings, CABAC : No
Format settings, ReFrames : 1 frame
Codec ID : avc1
Codec ID/Info : Advanced Video Coding
Duration : 1h 37mn
Bit rate : 350 Kbps
Maximum bit rate : 907 Kbps
Width : 416 pixels
Height : 224 pixels
Display aspect ratio : 1.85:1
Frame rate mode : Constant
Frame rate : 23.976 fps
Color space : YUV
Chroma subsampling : 4:2:0
Bit depth : 8 bits
Scan type : Progressive
Bits/(Pixel*Frame) : 0.157
Stream size : 244 MiB (73%)
Title : Imported with GPAC 0.4.6-DEV (internal rev. 5)
Writing library : x264 core 67 r1165M 6841c5e
Encoding settings : cabac=0 / ref=1 / deblock=1:0:0 / analyse=0x1:0 / me=hex / subme=6 / psy_rd=1.0:0.0 / mixed_ref=0 / me_range=16 / chroma_me=1 / trellis=0 / 8x8dct=0 / cqm=0 / deadzone=21,11 / chroma_qp_offset=-2 / threads=3 / nr=0 / decimate=1 / mbaff=0 / bframes=0 / keyint=250 / keyint_min=25 / scenecut=40 / rc=2pass / bitrate=350 / ratetol=1.0 / qcomp=0.60 / qpmin=10 / qpmax=51 / qpstep=4 / cplxblur=20.0 / qblur=0.5 / vbv_maxrate=1500 / vbv_bufsize=2000 / ip_ratio=1.40 / aq=1:1.00
Encoded date : UTC 2016-10-19 10:54:04
Tagged date : UTC 2016-10-19 10:54:32
Audio
ID : 2
Format : AAC
Format/Info : Advanced Audio Codec
Format profile : LC
Codec ID : 40
Duration : 1h 37mn
Bit rate mode : Variable
Bit rate : 126 Kbps
Maximum bit rate : 255 Kbps
Channel count : 2 channels
Channel positions : Front: L R
Sampling rate : 44.1 KHz
Compression mode : Lossy
Stream size : 87.7 MiB (26%)
Title : Imported with GPAC 0.4.6-DEV (internal rev. 5)
Encoded date : UTC 2016-10-19 10:54:23
Tagged date : UTC 2016-10-19 10:54:32

Скриншоты

Релиз от:
[Профиль] [ЛС]
Показать сообщения:    

Текущее время: Сегодня 13:07

Часовой пояс: GMT



Вы не можете начинать темы
Вы не можете отвечать на сообщения
Вы не можете редактировать свои сообщения
Вы не можете удалять свои сообщения
Вы не можете голосовать в опросах
Вы не можете прикреплять файлы к сообщениям
Вы не можете скачивать файлы