Шалун / Little Man (2006) BDRip 1080p | D, A | Лицензия | 60fps

 
Автор Сообщение

sergej644 ®

Пол:

Стаж: 4 года 11 месяцев

Сообщений: 6046

Откуда: Soviet Union



Награды: Нет

Торрент-статистика

Создавать темы 13-Мар-2015 19:22

[Цитировать]

--ШалунГод выпуска: 2006
Страны: США,Канада
Жанры: комедия, криминал
Продолжительность: 01:37:39
Перевод:Профессиональный (дублированный)

Режиссер: Кинен Айвори Уайанс
Сценарий: Кинен Айвори Уайанс, Шон Уайанс, Марлон Уайанс
Продюсер: Рик Альварез, Ли Р. Майес, Кинен Айвори Уайанс
Оператор: Стивен Бернстин
Композитор: Тедди Кастелуччи
Художник: Лесли Дилли, Гвендолин Маргетсон, Джори Вудман
Монтаж: Майк Джексон, Ник Мур
Субтитры: Russian (UTF-8), Ukrainian (UTF-8),
В ролях:

Марлон Уайанс / Marlon Wayans (Calvin), Шон Уайанс / Shawn Wayans (Darryl), Керри Вашингтон / Kerry Washington (Vanessa), Джон Уизерспун / John Witherspoon (Pops), Трэйси Морган / Tracy Morgan (Percy), Локлин Манро / Lochlyn Munro (Greg), Чазз Пальминтери / Chazz Palminteri (Walken), Молли Шеннон / Molly Shannon (Soccer Mom)
Описание
Главный герой так мечтает стать отцом, что по ошибке принимает находящегося в бегах маленького и похожего на ребенка воришку за своего брошенного сына. Новоявленный папаша и его жена берут «малыша» к себе в дом и начинают всячески о нем заботиться. Тем временем напарник вора, ограбивший вместе с ним ювелирный магазин, пытается выманить его из новой семьи, чтобы заполучить украденный бриллиант…

Бюджет: $64 000 000
Сборы в США: $58 645 052
Сборы в мире: + $42 950 069 = $101 595 121 сборы
Сборы в России: $2 470 500
Зрители: США 8.95 млн, Испания 905.8 тыс, Великобритания 882.2 тыс.
Премьера (мир): 13 июля 2006, ...
Премьера (РФ): 14 сентября 2006, «Каскад»
Релиз на DVD: 14 декабря 2006, «Columbia/Sony», ...
Рейтинг MPAA: Детям до 13 лет просмотр не желателен

МедиаИнфо

General
Complete name : Шалун 60fps.mkv
Format : Matroska
File size : 9.03 GiB
Duration : 1h 37mn
Overall bit rate : 13.2 Mbps
Movie name : Little.Man.2006.Blu-ray.1080p.MPEG-2
Encoded date : UTC 2015-03-10 03:54:04
Writing application : mkvmerge v7.7.0 ('Six Voices') 64bit built on Feb 28 2015 23:39:33
Writing library : libebml v1.3.1 + libmatroska v1.4.2
Video
ID : 1
Format : AVC
Format/Info : Advanced Video Codec
Format profile : High@L4.1
Format settings, CABAC : Yes
Format settings, ReFrames : 4 frames
Format settings, GOP : M=6, N=25
Muxing mode : Container profile=Unknown@4.1
Codec ID : V_MPEG4/ISO/AVC
Duration : 1h 37mn
Bit rate : 12.5 Mbps
Width : 1 920 pixels
Height : 1 040 pixels
Display aspect ratio : 16:9
Frame rate : 59.940 fps
Color space : YUV
Chroma subsampling : 4:2:0
Bit depth : 8 bits
Scan type : Progressive
Bits/(Pixel*Frame) : 0.105
Stream size : 8.54 GiB (95%)
Writing library : x264 core 130 r2273 b3065e6
Encoding settings : cabac=1 / ref=4 / deblock=1:0:0 / analyse=0x3:0 / me=umh / subme=9 / psy=1 / psy_rd=1.00:0.10 / mixed_ref=1 / me_range=42 / chroma_me=0 / trellis=2 / 8x8dct=1 / cqm=0 / deadzone=21,11 / fast_pskip=0 / chroma_qp_offset=-3 / threads=12 / lookahead_threads=1 / sliced_threads=0 / nr=0 / decimate=0 / interlaced=0 / bluray_compat=0 / constrained_intra=0 / bframes=5 / b_pyramid=2 / b_adapt=2 / b_bias=0 / direct=1 / weightb=1 / open_gop=0 / weightp=2 / keyint=594 / keyint_min=59 / scenecut=40 / intra_refresh=0 / rc=crf / mbtree=0 / crf=18.0 / qcomp=0.60 / qpmin=0 / qpmax=69 / qpstep=4 / ip_ratio=1.40 / pb_ratio=1.30 / aq=1:0.90
Audio
ID : 2
Format : AC-3
Format/Info : Audio Coding 3
Mode extension : CM (complete main)
Codec ID : A_AC3
Duration : 1h 37mn
Bit rate mode : Constant
Bit rate : 448 Kbps
Channel(s) : 6 channels
Channel positions : Front: L C R, Side: L R, LFE
Sampling rate : 48.0 KHz
Bit depth : 16 bits
Stream size : 313 MiB (3%)
Title : Дубляж
Language : Russian
Text #1
ID : 3
Format : UTF-8
Codec ID : S_TEXT/UTF8
Codec ID/Info : UTF-8 Plain Text
Language : Russian
Text #2
ID : 4
Format : UTF-8
Codec ID : S_TEXT/UTF8
Codec ID/Info : UTF-8 Plain Text
Language : Ukrainian
Text #3
ID : 5
Format : UTF-8
Codec ID : S_TEXT/UTF8
Codec ID/Info : UTF-8 Plain Text
Качество: BDRip 1080
Формат: MKV
Видео кодек: AVC
Аудио кодек: AC3
Видео: 1920x1040 (16:9), 59.940 fps, AVC, 12.5 Mbps
Аудио #1: AC3, 448 Kbps, 48.0 KHz, 6 ch
[Профиль] [ЛС]
Показать сообщения:    

Текущее время: Сегодня 06:24

Часовой пояс: GMT



Вы не можете начинать темы
Вы не можете отвечать на сообщения
Вы не можете редактировать свои сообщения
Вы не можете удалять свои сообщения
Вы не можете голосовать в опросах
Вы не можете прикреплять файлы к сообщениям
Вы не можете скачивать файлы