Шакалы / Jackals (2017) WEB-DL 1080p | L1

 
Автор Сообщение

BOSS ®

Пол:

Стаж: 3 года 1 месяц

Сообщений: 8270

Откуда: ODESSA



Награды: 22 (Подробнее)

Top Seeder 4 (Количество: 1) Top Keeper 3 (Количество: 1) За внесенный вклад в развитие сайта (Количество: 1)
Торрент-статистика

Создавать темы 02-Сен-2017 19:08

[Цитировать]

Информация о фильме
Название: Шакалы
Оригинальное название: Jackals
Год выпуска: 2017
Жанр: Ужасы, триллер
Режиссер: Кевин Гротерт
В ролях: Дебора Кара Ангер, Стивен Дорфф, Джонатон Шек, Ник Ру, Алисса Джулия Смит, Челси Рикеттс, Джейсон Скотт Дженкинс, Бен Салливан, Алекс Кинги, Кэсси Эрнандес
Описание:
Странная семья, отгородившаяся от окружающего мира, нанимает специалиста, чтобы вернуть своего сына, похищенного приспешниками некоего зловещего культа. Ситуация осложнится после того, как операция по спасению завершится успехом: семья окажется в осаде, а сектанты потребуют парня обратно.

Выпущено: США, Tommy Alastra Productions
Продолжительность: 01:26:01
Перевод: BadBajo
Озвучивание: Любительское одноголосое (BadBajo)
Субтитры: Английские (отключаемые)
Файл
Формат: MKV
Качество: WEB-DL 1080p
Видео: AVC/H.264, 1912х800, ~4 947 Kbps
Аудио: AC3, 6 ch, 384 Kbps l Русский VO, BadBajo
Аудио: AC3, 6 ch, 384 Kbps l Английский

M/I

Complete name : Jackals.2017.1080p.WEB-DL.DD5.1.H264_rus_BadBajo.mkv
Format : Matroska
Format version : Version 4 / Version 2
File size : 3.22 GiB
Duration : 1 h 26 min
Overall bit rate : 5 354 kb/s
Movie name : Jackals.2017.1080p.WEB-DL.DD5.1.H264_rus_BadBajo
Encoded date : UTC 2017-09-01 22:28:50
Writing application : mkvmerge v13.0.0 ('The Juggler') 64bit
Writing library : libebml v1.3.4 + libmatroska v1.4.5
Cover : Yes
Attachments : cover.jpg
Video
ID : 1
Format : AVC
Format/Info : Advanced Video Codec
Format profile : High@L4
Format settings, CABAC : Yes
Format settings, RefFrames : 5 frames
Codec ID : V_MPEG4/ISO/AVC
Duration : 1 h 26 min
Bit rate : 4 584 kb/s
Width : 1 912 pixels
Height : 800 pixels
Display aspect ratio : 2.40:1
Frame rate mode : Constant
Frame rate : 23.976 (23976/1000) FPS
Color space : YUV
Chroma subsampling : 4:2:0
Bit depth : 8 bits
Scan type : Progressive
Bits/(Pixel*Frame) : 0.125
Stream size : 2.75 GiB (86%)
Title : Jackals.2017.1080p.WEB-DL.DD5.1.H264-FGT
Language : English
Default : Yes
Forced : No
Color range : Limited
Color primaries : BT.709
Transfer characteristics : BT.709
Matrix coefficients : BT.709
Audio #1
ID : 2
Format : AC-3
Format/Info : Audio Coding 3
Format settings, Endianness : Big
Codec ID : A_AC3
Duration : 1 h 26 min
Bit rate mode : Constant
Bit rate : 384 kb/s
Channel(s) : 6 channels
Channel positions : Front: L C R, Side: L R, LFE
Sampling rate : 48.0 kHz
Frame rate : 31.250 FPS (1536 SPF)
Bit depth : 16 bits
Compression mode : Lossy
Delay relative to video : -42 ms
Stream size : 236 MiB (7%)
Title : Jackals.2017.1080p.WEB-DL.DD5.1.H264_rus_BadBajo
Language : Russian
Service kind : Complete Main
Default : Yes
Forced : Yes
Audio #2
ID : 3
Format : AC-3
Format/Info : Audio Coding 3
Format settings, Endianness : Big
Codec ID : A_AC3
Duration : 1 h 26 min
Bit rate mode : Constant
Bit rate : 384 kb/s
Channel(s) : 6 channels
Channel positions : Front: L C R, Side: L R, LFE
Sampling rate : 48.0 kHz
Frame rate : 31.250 FPS (1536 SPF)
Bit depth : 16 bits
Compression mode : Lossy
Delay relative to video : -42 ms
Stream size : 236 MiB (7%)
Title : Jackals.2017.1080p.WEB-DL.DD5.1.H264-FGT
Language : English
Service kind : Complete Main
Default : No
Forced : No
Text
ID : 4
Format : UTF-8
Codec ID : S_TEXT/UTF8
Codec ID/Info : UTF-8 Plain Text
Duration : 1 h 14 min
Bit rate : 38 b/s
Count of elements : 682
Stream size : 20.8 KiB (0%)
Language : English
Default : No
Forced : No
Menu
00:00:00.000 : en:1
00:09:58.640 : en:2
00:20:01.200 : en:3
00:30:37.586 : en:4
00:42:08.944 : en:5
00:52:56.841 : en:6
00:58:26.712 : en:7
01:05:26.757 : en:8
01:19:36.148 : en:9

Скриншоты

ЦитатаКто-то писал:Се́кта (сред.-в. лат. secta — школа, учение, от лат. sequor — следую) — понятие (термин), которое используется для обозначения религиозной группы, отделившейся от основного направления и противостоящей ему, или указания на организованную традицию, имеющую своего основателя и особое учение. В некоторых источниках понятие «секта» трактуется шире. Так называется любая группа (религиозная или нерелигиозная, отделившаяся или новая), имеющая своё учение и свою практику, отличные от господствующей церкви или идеологии.
Латинскому слову лат. secta в древнегреческом языке соответствует слово др.-греч. αἵρεσις — ересь. Понятия «ересь» и «секта» в этих языках тождественные. (Википедия)
[Профиль] [ЛС]
Показать сообщения:    

Текущее время: Сегодня 07:28

Часовой пояс: GMT



Вы не можете начинать темы
Вы не можете отвечать на сообщения
Вы не можете редактировать свои сообщения
Вы не можете удалять свои сообщения
Вы не можете голосовать в опросах
Вы не можете прикреплять файлы к сообщениям
Вы не можете скачивать файлы