Шаг с крыши (1970) DVDRip

 
Автор Сообщение

sergej644 ®

Пол:

Стаж: 4 года 11 месяцев

Сообщений: 6045

Откуда: Soviet Union



Награды: Нет

Торрент-статистика

Создавать темы 17-Ноя-2014 21:12

[Цитировать]

-Шаг с крыши (1970) DVDRip- Год выпуска: 1970
Жанр: Сказка, детский, фэнтези, приключения, экранизация, музыкальный фильм
Выпущено: СССР, Одесская киностудия
Описание фильма:
«Шаг с крыши» — музыкальный художественный фильм, снятый по одноимённой повести Радия Погодина о волшебных путешествиях во времени. Один из фильмов-«кроссоверов». Пятиклассник Витька Парамонов знакомится на крыше с синей волшебной вороной. С ее помощью герой совершает путешествие во времени – то попадает в каменный век, то во Францию времен мушкетеров, а то и в свой родной город периода Гражданской войны, где ему удается совершить подвиг – расправиться с белыми и спасти чапаевца...
Режиссер: Радомир Василевский
Актеры: Дмитрий Николаев, Нета Боярская, Александр Березняк, Федор Одиноков, Валентина Телегина, Сергей Плотников, Анатолий Яббаров, Владимир Баллон, Борислав Брондуков, Георгий Вицин, Зиновий Гердт, Георгий Милляр, Александр Потапов, Лев Прыгунов, Иван Рыжов, Валентина Теличкина, Роман Ткачук, Антонина Шуранова, Елизавета Никищихина, Николай Карнаухов, Анатолий Обухов
Продолжительность: 01:24:03

Видеокодек: DivX 5
Битрейт видео: ~2194 Кбит/с
Размер кадра: 720 x 544
Качество видео: DVDRip
Аудиокодек: MP3 2.0
Битрейт аудио: 128 Кбит/с

Призы и награды

Международный кинофестиваль научно-фантастических фильмов в Триесте-72. Италия. 1972 год.
Победитель (1):
Приз «Серебряный астероид» за лучшее исполнение мужской роли (Митя Николаев)

MediaInfo

Общее
Полное имя : Shag_s_kryshi.1970.DVDRip.avi
Формат : AVI
Формат/Информация : Audio Video Interleave
Размер файла : 1,37 Гбайт
Продолжительность : 1 ч. 24 м.
Общий поток : 2329 Кбит/сек
Программа кодирования : VirtualDubMod 1.5.4.1 (build 2178/release)
Библиотека кодирования : VirtualDubMod build 2178/release
Видео
Идентификатор : 0
Формат : MPEG-4 Visual
Параметр BVOP формата : 1
Параметр QPel формата : Нет
Параметр GMC формата : Без точки перехода
Параметр матрицы формата : Default (H.263)
Режим смешивания : Сжатый битовый поток
Идентификатор кодека : DX50
Идентификатор кодека/Подсказка : DivX 5
Продолжительность : 1 ч. 24 м.
Битрейт : 2194 Кбит/сек
Ширина : 720 пикселей
Высота : 544 пикселя
Соотношение сторон : 4:3
Частота кадров : 25,000 кадров/сек
Цветовое пространство : YUV
Субдискретизация насыщенности : 4:2:0
Битовая глубина : 8 бит
Тип развёртки : Прогрессивная
Метод сжатия : С потерями
Бит/(Пиксели*Кадры) : 0.224
Размер потока : 1,29 Гбайт (94%)
Библиотека кодирования : DivX 5.1.1 (Maupiti) (UTC 2003-11-19)
Аудио
Идентификатор : 1
Формат : MPEG Audio
Версия формата : Version 1
Профиль формата : Layer 3
Режим : Joint stereo
Расширение режима : MS Stereo
Идентификатор кодека : 55
Идентификатор кодека/Подсказка : MP3
Продолжительность : 1 ч. 24 м.
Вид битрейта : Постоянный
Битрейт : 128 Кбит/сек
Каналы : 2 канала
Частота : 48,0 КГц
Метод сжатия : С потерями
Размер потока : 77,0 Мбайт (5%)
Выравнивание : Соединение по промежуткам
Продолжительность промежутка : 80 мс. (2,00 видеокадра)
Время предзагрузки промежутка : 504 мс.
Библиотека кодирования : LAME3.97
Настройки программы : -m j -V 4 -q 2 -lowpass 17 -b 128
Язык : Russian
Скриншоты:
Время раздачи: По возможности (до 3 скачавших)
[Профиль] [ЛС]
Кто просматривает тему:

Показать сообщения:    

Текущее время: Сегодня 22:16

Часовой пояс: GMT



Вы не можете начинать темы
Вы не можете отвечать на сообщения
Вы не можете редактировать свои сообщения
Вы не можете удалять свои сообщения
Вы не можете голосовать в опросах
Вы не можете прикреплять файлы к сообщениям
Вы не можете скачивать файлы