Шаг вперёд: Всё или ничего / Step Up All In (2014) WEB-DL 720p | iTunes

 
Автор Сообщение

sergej644 ®

Пол:

Стаж: 4 года 11 месяцев

Сообщений: 6042

Откуда: Soviet Union



Награды: Нет

Торрент-статистика

Создавать темы 13-Фев-2015 11:48

[Цитировать]

Информация о фильме
Название: Шаг вперёд: Всё или ничего
Оригинальное название: Step Up All In
Год выхода: 2014
Жанр: драма, мелодрама, музыка
Режиссер: Триш Си
В ролях: Райан Гузман, Бриана Эвиган, Стивен Босс, Миша Гэбриел Хэмилтон, Изабелла Мико, Элисон Стоунер, Адам Дж. Севани, Стивен Стево Джонс, Дэвид Шрейбман, Мари Кода
О фильме: В переливающемся огнями Лас-Вегасе лучшие танцоры планеты сойдутся в батле, который решит все. Талантливый самоучка Шон и красотка Энди, мечтающие о славе и богатстве, примут участие в популярном реалити-шоу и бросят вызов «непобедимым» командам противников, а главное — самим себе. Смогут ли они преодолеть страх, пережить предательство и обуздать страсть, чтобы стать первыми и осуществить свои мечты?

Выпущено: США
Продолжительность: 01:51:45
Озвучивание: Дублированное [iTunes]
Файл
Формат: MKV
Качество: WEB-DL 720p
Видео: 3982 Kb/s, 1280x720
Аудио: AC3, 384 Kb/s (6 ch)

MI

Format : Matroska
Format version : Version 4 / Version 2
File size : 3.48 GiB
Duration : 1h 51mn
Overall bit rate : 4 455 Kbps
Encoded date : UTC 2014-10-20 19:25:26
Writing application : mkvmerge v6.9.1 ('Blue Panther') 64bit built on Apr 18 2014 18:23:38
Writing library : libebml v1.3.0 + libmatroska v1.4.1
Video
ID : 1
Format : AVC
Format/Info : Advanced Video Codec
Format profile : High@L3.1
Format settings, CABAC : No
Format settings, ReFrames : 2 frames
Codec ID : V_MPEG4/ISO/AVC
Duration : 1h 51mn
Bit rate : 3 982 Kbps
Width : 1 280 pixels
Height : 720 pixels
Display aspect ratio : 16:9
Frame rate : 24.000 fps
Color space : YUV
Chroma subsampling : 4:2:0
Bit depth : 8 bits
Scan type : Progressive
Bits/(Pixel*Frame) : 0.180
Stream size : 3.11 GiB (89%)
Language : English
Default : Yes
Forced : No
Color primaries : BT.709-5, BT.1361, IEC 61966-2-4, SMPTE RP177
Transfer characteristics : BT.709-5, BT.1361
Matrix coefficients : BT.709-5, BT.1361, IEC 61966-2-4 709, SMPTE RP177
Audio
ID : 2
Format : AC-3
Format/Info : Audio Coding 3
Mode extension : CM (complete main)
Format settings, Endianness : Big
Codec ID : A_AC3
Duration : 1h 51mn
Bit rate mode : Constant
Bit rate : 384 Kbps
Channel(s) : 6 channels
Channel positions : Front: L C R, Side: L R, LFE
Sampling rate : 48.0 KHz
Bit depth : 16 bits
Compression mode : Lossy
Stream size : 307 MiB (9%)
Language : Russian
Default : Yes
Forced : No
Menu
00:00:00.000 : en:Глава 1
00:05:39.000 : en:Глава 2
00:12:04.000 : en:Глава 3
00:17:36.000 : en:Глава 4
00:22:46.000 : en:Глава 5
00:27:38.000 : en:Глава 6
00:32:52.000 : en:Глава 7
00:39:13.000 : en:Глава 8
00:44:59.000 : en:Глава 9
00:50:40.000 : en:Глава 10
00:56:48.000 : en:Глава 11
01:02:59.000 : en:Глава 12
01:07:01.000 : en:Глава 13
01:14:17.000 : en:Глава 14
01:19:03.000 : en:Глава 15
01:25:54.000 : en:Глава 16
01:29:17.000 : en:Глава 17
01:34:27.000 : en:Глава 18
01:40:26.000 : en:Глава 19
[Профиль] [ЛС]
Кто просматривает тему:

Показать сообщения:    

Текущее время: Сегодня 18:13

Часовой пояс: GMT



Вы не можете начинать темы
Вы не можете отвечать на сообщения
Вы не можете редактировать свои сообщения
Вы не можете удалять свои сообщения
Вы не можете голосовать в опросах
Вы не можете прикреплять файлы к сообщениям
Вы не можете скачивать файлы