Шаг вперёд: Всё или ничего / Step Up All In (2014) BDRip 720p | iTunes

 
Автор Сообщение

sergej644 ®

Пол:

Стаж: 4 года 11 месяцев

Сообщений: 6045

Откуда: Soviet Union



Награды: Нет

Торрент-статистика

Создавать темы 11-Фев-2015 06:50

[Цитировать]

Информация о фильме
Название: Шаг вперёд: Всё или ничего
Оригинальное название: Step Up All In
Год выхода: 2014
Жанр: драма, мелодрама, музыка
Режиссер: Триш Си
В ролях: Райан Гузман, Бриана Эвиган, Стивен Босс, Миша Гэбриел Хэмилтон, Изабелла Мико, Элисон Стоунер, Адам Дж. Севани, Стивен Стево Джонс, Дэвид Шрейбман, Мари Кода
О фильме: В переливающемся огнями Лас-Вегасе лучшие танцоры планеты сойдутся в батле, который решит все. Талантливый самоучка Шон и красотка Энди, мечтающие о славе и богатстве, примут участие в популярном реалити-шоу и бросят вызов «непобедимым» командам противников, а главное — самим себе. Смогут ли они преодолеть страх, пережить предательство и обуздать страсть, чтобы стать первыми и осуществить свои мечты?

Выпущено: США / Offspring Entertainment, Summit Entertainment
Продолжительность: 01:51:51
Озвучивание: Дублированное [iTunes]
Файл
Формат: MKV (x264)
Качество: BDRip 720p
Видео: 4949 Kb/s, 1280x720
Аудио: Russian: AC3, 384 Kb/s (6 ch) / Enhlish: AC3, 640 Kb/s (6 ch)
Дополнительно: Сохранены оригинальные чаптеры
Размер: 4.67 Gb
Скачать: Сэмпл---

Media Info

General
Unique ID : 186427161512153395225945665341660387041 (0x8C4090B636514543BC66614846D4D6E1)
Complete name : D:Фильмыstep.up.all.in.2014.720p.bluray.mkv
Format : Matroska
Format version : Version 4 / Version 2
File size : 4.67 GiB
Duration : 1h 51mn
Overall bit rate : 5 974 Kbps
Encoded date : UTC 2014-10-23 07:29:01
Writing application : mkvmerge v7.1.0 ('Good Love') 64bit built on Jul 27 2014 13:06:55
Writing library : libebml v1.3.0 + libmatroska v1.4.1
_STATISTICS_WRITING_APP : mkvmerge v7.1.0 ('Good Love') 64bit built on Jul 27 2014 13:06:55
_STATISTICS_WRITING_DATE_UTC : 2014-10-23 07:29:01
_STATISTICS_TAGS : BPS DURATION NUMBER_OF_FRAMES NUMBER_OF_BYTES
DURATION : 01:51:51.680000000
NUMBER_OF_FRAMES : 209740
NUMBER_OF_BYTES : 322160640
Video
ID : 1
Format : AVC
Format/Info : Advanced Video Codec
Format profile : High@L4.1
Format settings, CABAC : Yes
Format settings, ReFrames : 5 frames
Codec ID : V_MPEG4/ISO/AVC
Duration : 1h 51mn
Bit rate : 4 949 Kbps
Width : 1 280 pixels
Height : 720 pixels
Display aspect ratio : 16:9
Frame rate mode : Constant
Frame rate : 23.976 fps
Color space : YUV
Chroma subsampling : 4:2:0
Bit depth : 8 bits
Scan type : Progressive
Bits/(Pixel*Frame) : 0.224
Stream size : 3.77 GiB (81%)
Writing library : x264 core 142 r2479 dd79a61
Encoding settings : cabac=1 / ref=5 / deblock=1:0:0 / analyse=0x3:0x133 / me=umh / subme=7 / psy=1 / psy_rd=1.00:0.00 / mixed_ref=1 / me_range=16 / chroma_me=1 / trellis=1 / 8x8dct=1 / cqm=0 / deadzone=21,11 / fast_pskip=0 / chroma_qp_offset=-2 / threads=18 / lookahead_threads=3 / sliced_threads=0 / nr=0 / decimate=1 / interlaced=0 / bluray_compat=0 / constrained_intra=0 / bframes=3 / b_pyramid=2 / b_adapt=2 / b_bias=0 / direct=3 / weightb=1 / open_gop=0 / weightp=2 / keyint=250 / keyint_min=23 / scenecut=40 / intra_refresh=0 / rc_lookahead=50 / rc=2pass / mbtree=1 / bitrate=4949 / ratetol=1.0 / qcomp=0.60 / qpmin=0 / qpmax=69 / qpstep=4 / cplxblur=20.0 / qblur=0.5 / ip_ratio=1.40 / aq=1:1.00
Language : English
Default : Yes
Forced : No
_STATISTICS_WRITING_APP : mkvmerge v7.1.0 ('Good Love') 64bit built on Jul 27 2014 13:06:55
_STATISTICS_WRITING_DATE_UTC : 2014-10-23 07:29:01
_STATISTICS_TAGS : BPS DURATION NUMBER_OF_FRAMES NUMBER_OF_BYTES
DURATION : 01:51:51.705000000
NUMBER_OF_FRAMES : 160920
NUMBER_OF_BYTES : 4150807325
Audio #1
ID : 2
Format : AC-3
Format/Info : Audio Coding 3
Mode extension : CM (complete main)
Format settings, Endianness : Big
Codec ID : A_AC3
Duration : 1h 51mn
Bit rate mode : Constant
Bit rate : 384 Kbps
Channel(s) : 6 channels
Channel positions : Front: L C R, Side: L R, LFE
Sampling rate : 48.0 KHz
Bit depth : 16 bits
Compression mode : Lossy
Stream size : 307 MiB (6%)
Title : Русский
Language : Russian
Default : No
Forced : No
Audio #2
ID : 3
Format : AC-3
Format/Info : Audio Coding 3
Mode extension : CM (complete main)
Format settings, Endianness : Big
Codec ID : A_AC3
Duration : 1h 51mn
Bit rate mode : Constant
Bit rate : 640 Kbps
Channel(s) : 6 channels
Channel positions : Front: L C R, Side: L R, LFE
Sampling rate : 48.0 KHz
Bit depth : 16 bits
Compression mode : Lossy
Stream size : 512 MiB (11%)
Title : Английский
Language : English
Default : No
Forced : No
Menu
00:00:00.000 : :00:00:00.000
00:05:40.298 : :00:05:40.298
00:12:12.690 : :00:12:12.690
00:19:04.977 : :00:19:04.977
00:26:09.693 : :00:26:09.693
00:32:55.849 : :00:32:55.849
00:39:16.813 : :00:39:16.813
00:46:30.287 : :00:46:30.287
00:55:57.521 : :00:55:57.521
01:03:04.197 : :01:03:04.197
01:07:06.189 : :01:07:06.189
01:14:23.000 : :01:14:23.000
01:22:08.298 : :01:22:08.298
01:29:23.400 : :01:29:23.400
01:35:56.584 : :01:35:56.584
01:43:34.083 : :01:43:34.083
--- --- -
[Профиль] [ЛС]
Кто просматривает тему:

Показать сообщения:    

Текущее время: Сегодня 06:04

Часовой пояс: GMT



Вы не можете начинать темы
Вы не можете отвечать на сообщения
Вы не можете редактировать свои сообщения
Вы не можете удалять свои сообщения
Вы не можете голосовать в опросах
Вы не можете прикреплять файлы к сообщениям
Вы не можете скачивать файлы