Шаг Вперёд: Антология / Step Up: Antology (2006 - 2014) BDRip 720p от R.G. HD-Films | 60 fps

 
Автор Сообщение

sergej644 ®

Пол:

Стаж: 4 года 11 месяцев

Сообщений: 6045

Откуда: Soviet Union



Награды: Нет

Торрент-статистика

Создавать темы 09-Авг-2015 18:10

[Цитировать]

Шаг Вперёд

-Название: Шаг вперед
Оригинальное название: Step Up
Год выпуска: 2006
Страна: США
Жанр: драма, мелодрама, криминал, музыка
Продолжительность: 01:43:30
Перевод: Дубляж-Режиссер: Энн Флетчер / Anne Fletcher-В ролях: Ченнинг Татум (Tyler Gage), Дженна Дуан-Татум (Nora Clark), Дэмейн Рэдклифф (Mac Carter), Ди’Шон Вашингтон (Skinny Carter), Марио (Miles Darby), Дрю Сидора (Lucy Avila), Рэйчел Гриффитс (Director Gordon), Джош Хендерсон (Brett Dolan), Тим Лакатена (Andrew), Элисон Стоунер (Camille), Хэви Ди (Omar), Дирдри Лавджой (Nora's Mom / Katherine Clark)-Описание:
Тайлер Гейдж - уличный танцор. Безумный и рискованный стиль жизни заставляет его конфликтовать с обществом. После очередного инцидента, Тайлер попадает в школу, в которой будет вынужден отрабатывать наказание в виде исправительных работ. Там он знакомится с девушкой, которая открывает ему глаза на его талант и окружающий его мир...-Рейтинг

imdb.com: 6.50 (81 145)
MPAA: PG-13 - Детям до 13 лет просмотр не желателен-Качество: BDRip 720p / 60 FPS
Формат: MKV
Видео кодек: AVC
Аудио кодек: AC3
Видео: AVC, 1280x544 (2.35:1), 5613 kbps, 59,940 fps, 0,134 bpp
Аудио: Русский / AC3 / 5.1 / 48 kHz / 640 kbps / 16 bit - -

MI

General
Unique ID : 186593061139339694971539048057182248793 (0x8C608431E4B78D8B9B4E4B88F6425F59)
Complete name : E:КодировкаРаздачаШаг Вперёд 1-5Шаг Вперёд 60 fps.mkv
Format : Matroska
Format version : Version 4 / Version 2
File size : 4.52 GiB
Duration : 1h 43mn
Overall bit rate : 6 255 Kbps
Encoded date : UTC 2015-07-26 07:46:52
Writing application : mkvmerge v7.0.0 ('Where We Going') 64bit built on Jun 9 2014 15:16:27
Writing library : libebml v1.3.0 + libmatroska v1.4.1
Video
ID : 1
Format : AVC
Format/Info : Advanced Video Codec
Format profile : High@L4.1
Format settings, CABAC : Yes
Format settings, ReFrames : 9 frames
Codec ID : V_MPEG4/ISO/AVC
Duration : 1h 43mn
Bit rate : 5 613 Kbps
Width : 1 280 pixels
Height : 544 pixels
Display aspect ratio : 2.35:1
Frame rate : 59.940 fps
Color space : YUV
Chroma subsampling : 4:2:0
Bit depth : 8 bits
Scan type : Progressive
Bits/(Pixel*Frame) : 0.134
Stream size : 3.97 GiB (88%)
Writing library : x264 core 146 r2538 121396c
Encoding settings : cabac=1 / ref=9 / deblock=1:0:0 / analyse=0x3:0 / me=umh / subme=9 / psy=1 / psy_rd=0.00:0.00 / mixed_ref=1 / me_range=42 / chroma_me=0 / trellis=2 / 8x8dct=1 / cqm=0 / deadzone=21,11 / fast_pskip=0 / chroma_qp_offset=0 / threads=12 / lookahead_threads=3 / sliced_threads=0 / nr=0 / decimate=0 / interlaced=0 / bluray_compat=0 / constrained_intra=0 / bframes=16 / b_pyramid=2 / b_adapt=2 / b_bias=0 / direct=3 / weightb=1 / open_gop=0 / weightp=2 / keyint=250 / keyint_min=25 / scenecut=40 / intra_refresh=0 / rc=2pass / mbtree=0 / bitrate=5613 / ratetol=1.0 / qcomp=0.60 / qpmin=0 / qpmax=69 / qpstep=4 / cplxblur=20.0 / qblur=0.5 / ip_ratio=1.40 / pb_ratio=1.30 / aq=1:0.90
Language : English
Default : Yes
Forced : No
Audio
ID : 2
Format : AC-3
Format/Info : Audio Coding 3
Mode extension : CM (complete main)
Codec ID : A_AC3
Duration : 1h 43mn
Bit rate mode : Constant
Bit rate : 640 Kbps
Channel(s) : 6 channels
Channel positions : Front: L C R, Side: L R, LFE
Sampling rate : 48.0 KHz
Bit depth : 16 bits
Compression mode : Lossy
Stream size : 474 MiB (10%)
Language : Russian
Default : Yes
Forced : No

Скриншоты

Шаг Вперёд 2: Улицы

-Название: Шаг вперед 2: Улицы
Оригинальное название: Step Up 2: The Streets
Год выпуска: 2008
Страна: США
Жанр: мюзикл, драма, мелодрама, музыка
Продолжительность: 01:37:49
Перевод: Дубляж-Режиссер: Джон М. Чу / Jon Chu-В ролях: Бриана Эвиган (Andie), Роберт Хоффман (Chase), Адам Дж. Севани (Moose), Блэк Томас (Tuck), Даниэль Поланко (Missy), Уилл Кемп (Blake Collins), Кэсси (Sophie), Соня Сон (Sarah), Ченнинг Татум (Tyler), Кристофер Скотт (Hair), Мари Кода (Jenny Kido), Джанелл Кэмбридж (Fly)-Описание:
Уличная танцовщица Энди поступает в Мэрилендскую школу искусств. Занимаясь там, она стремится доказать, что ни в чем не уступает другим студентам. Познакомившись с лучшим учеником школы Чейзом, Энди создает коллектив, который должен выступать в подпольном танцевальном состязании «Улицы». В итоге Энди удается реализовать свои мечты и справиться с одолевающими ее проблемами...-Рейтинг

imdb.com: 6.20 (60 577)
MPAA: PG-13 - Детям до 13 лет просмотр не желателен-Качество: BDRip 720p / 60 FPS
Формат: MKV
Видео кодек: AVC
Аудио кодек: AC3
Видео: AVC, 1280x696 (16:9), 7154 kbps, 59,940 fps, 0,134 bpp
Аудио: Русский / AC3 / 5.1 / 48 kHz / 640 kbps / 16 bit - -

MI

General
Unique ID : 189048245071653169614833463518651236358 (0x8E395E1BCD7CF6CF88FC761238EC4006)
Complete name : E:КодировкаРаздачаШаг Вперёд 1-5Шаг Вперёд 2 60fps.mkv
Format : Matroska
Format version : Version 4 / Version 2
File size : 5.33 GiB
Duration : 1h 37mn
Overall bit rate : 7 794 Kbps
Encoded date : UTC 2015-07-25 08:51:04
Writing application : mkvmerge v7.0.0 ('Where We Going') 64bit built on Jun 9 2014 15:16:27
Writing library : libebml v1.3.0 + libmatroska v1.4.1
Video
ID : 1
Format : AVC
Format/Info : Advanced Video Codec
Format profile : High@L4.1
Format settings, CABAC : Yes
Format settings, ReFrames : 9 frames
Codec ID : V_MPEG4/ISO/AVC
Duration : 1h 37mn
Bit rate : 7 154 Kbps
Width : 1 280 pixels
Height : 696 pixels
Display aspect ratio : 16:9
Frame rate : 59.940 fps
Color space : YUV
Chroma subsampling : 4:2:0
Bit depth : 8 bits
Scan type : Progressive
Bits/(Pixel*Frame) : 0.134
Stream size : 4.78 GiB (90%)
Writing library : x264 core 146 r2538 121396c
Encoding settings : cabac=1 / ref=9 / deblock=1:0:0 / analyse=0x3:0 / me=umh / subme=9 / psy=1 / psy_rd=0.00:0.00 / mixed_ref=1 / me_range=42 / chroma_me=0 / trellis=2 / 8x8dct=1 / cqm=0 / deadzone=21,11 / fast_pskip=0 / chroma_qp_offset=0 / threads=12 / lookahead_threads=3 / sliced_threads=0 / nr=0 / decimate=0 / interlaced=0 / bluray_compat=0 / constrained_intra=0 / bframes=16 / b_pyramid=2 / b_adapt=2 / b_bias=0 / direct=3 / weightb=1 / open_gop=0 / weightp=2 / keyint=250 / keyint_min=25 / scenecut=40 / intra_refresh=0 / rc=2pass / mbtree=0 / bitrate=7154 / ratetol=1.0 / qcomp=0.60 / qpmin=0 / qpmax=69 / qpstep=4 / cplxblur=20.0 / qblur=0.5 / ip_ratio=1.40 / pb_ratio=1.30 / aq=1:0.90
Language : English
Default : Yes
Forced : No
Audio
ID : 2
Format : AC-3
Format/Info : Audio Coding 3
Mode extension : CM (complete main)
Codec ID : A_AC3
Duration : 1h 37mn
Bit rate mode : Constant
Bit rate : 640 Kbps
Channel(s) : 6 channels
Channel positions : Front: L C R, Side: L R, LFE
Sampling rate : 48.0 KHz
Bit depth : 16 bits
Compression mode : Lossy
Stream size : 448 MiB (8%)
Language : Russian
Default : Yes
Forced : No

Скриншоты

Шаг Вперёд 3D

-Название: Шаг вперед 3D
Оригинальное название: Step Up 3D
Год выпуска: 2010
Страна: США
Жанр: драма, мелодрама, музыка
Продолжительность: 01:47:11
Перевод: Дубляж-Режиссер: Джон М. Чу / Jon Chu-В ролях: Рик Маламбри (Luke), Адам Дж. Севани (Moose), Шарни Винсон (Natalie), Элисон Стоунер (Camille), Кит «Ремеди» Сталлворт (Jacob), Кендра Эндрюс (Anala), Стивен Босс (Jason), Мартин Ломбард (The Santiago Twins), Факундо Ломбард (The Santiago Twins), Орен Михаэли (Carlos), Джо Слотер (Julien), Дэниель «Облако» Кампос (Kid Darkness)-Описание:
Некоторые учатся танцевать, другие рождены для этого. Люк ищет танцоров для своей команды «Пираты». В конце концов, ему встречаются Лось, поступивший в Нью-Йоркский университет, и Натали, загадочная танцовщица, которая никогда не проигрывает. Смогут ли они превзойти лучших мировых танцоров?-Рейтинг

imdb.com: 6.20 (43 226)
MPAA: PG-13 - Детям до 13 лет просмотр не желателен-Качество: BDRip 720p / 60 FPS
Формат: MKV
Видео кодек: AVC
Аудио кодек: AC3
Видео: AVC, 1280x720 (16:9), 7208 kbps, 59,940 fps, 0,130 bpp
Аудио: Русский / AC3 / 5.1 / 48 kHz / 640 kbps / 16 bit - -

MI

General
Unique ID : 224452287839837674430534033626703154624 (0xA8DBF02F6D9D6991B7F69B49D1F94DC0)
Complete name : E:КодировкаРаздачаШаг Вперёд 1-5Шаг Вперёд 3 60 fps.mkv
Format : Matroska
Format version : Version 4 / Version 2
File size : 5.88 GiB
Duration : 1h 47mn
Overall bit rate : 7 854 Kbps
Encoded date : UTC 2015-07-27 14:12:02
Writing application : mkvmerge v7.0.0 ('Where We Going') 64bit built on Jun 9 2014 15:16:27
Writing library : libebml v1.3.0 + libmatroska v1.4.1
Video
ID : 1
Format : AVC
Format/Info : Advanced Video Codec
Format profile : High@L4.1
Format settings, CABAC : Yes
Format settings, ReFrames : 9 frames
Codec ID : V_MPEG4/ISO/AVC
Duration : 1h 47mn
Bit rate : 7 208 Kbps
Width : 1 280 pixels
Height : 720 pixels
Display aspect ratio : 16:9
Frame rate : 59.940 fps
Color space : YUV
Chroma subsampling : 4:2:0
Bit depth : 8 bits
Scan type : Progressive
Bits/(Pixel*Frame) : 0.130
Stream size : 5.28 GiB (90%)
Writing library : x264 core 146 r2538 121396c
Encoding settings : cabac=1 / ref=9 / deblock=1:0:0 / analyse=0x3:0 / me=umh / subme=9 / psy=1 / psy_rd=0.00:0.00 / mixed_ref=1 / me_range=42 / chroma_me=0 / trellis=2 / 8x8dct=1 / cqm=0 / deadzone=21,11 / fast_pskip=0 / chroma_qp_offset=0 / threads=12 / lookahead_threads=3 / sliced_threads=0 / nr=0 / decimate=0 / interlaced=0 / bluray_compat=0 / constrained_intra=0 / bframes=16 / b_pyramid=2 / b_adapt=2 / b_bias=0 / direct=3 / weightb=1 / open_gop=0 / weightp=2 / keyint=250 / keyint_min=25 / scenecut=40 / intra_refresh=0 / rc=2pass / mbtree=0 / bitrate=7208 / ratetol=1.0 / qcomp=0.60 / qpmin=0 / qpmax=69 / qpstep=4 / cplxblur=20.0 / qblur=0.5 / ip_ratio=1.40 / pb_ratio=1.30 / aq=1:0.90
Language : English
Default : Yes
Forced : No
Audio
ID : 2
Format : AC-3
Format/Info : Audio Coding 3
Mode extension : CM (complete main)
Codec ID : A_AC3
Duration : 1h 47mn
Bit rate mode : Constant
Bit rate : 640 Kbps
Channel(s) : 6 channels
Channel positions : Front: L C R, Side: L R, LFE
Sampling rate : 48.0 KHz
Bit depth : 16 bits
Compression mode : Lossy
Stream size : 491 MiB (8%)
Language : Russian
Default : Yes
Forced : No

Скриншоты

Шаг Вперёд 4

-Название: Шаг вперед 4
Оригинальное название: Step Up Revolution
Год выпуска: 2012
Страна: США
Жанр: драма, мелодрама, музыка
Продолжительность: 01:38:38
Перевод: Дубляж-Режиссер: Скотт Спир / Scott Speer-В ролях: Райан Гузман (Sean), Кэтрин МакКормик (Emily), Миша Гэбриел Хэмилтон (Eddy), Клеопатра Коулмэн (Penelope), Стивен Босс (Jason), Томми Дьюи (Trip), Питер Галлахер (Mr. Anderson), Миа Майклс (Olivia), Меган Бун (Claire), Майкл «Ксено» Лэнджбек (Mercury), Клаудио Пинто (Francisco), Николь Дабо (Newscaster)-Описание:
Эмили, дочь влиятельного бизнесмена, приезжает в Майами с намерением стать профессиональной танцовщицей, но влюбляется в Шона - юношу, чья танцевальная труппа устраивает музыкальные флэшмобы. Команда, называющаяся MOB, участвует в конкурсе с внушительным денежным призом, а тем временем отец Эмили намеревается перестроить родной район ребят и переселить тысячи людей. Эмили присоединяется к танцорам и организует протестные мобы, рискуя не осуществить мечту, но сражаясь за нечто более важное.-Рейтинг

imdb.com: 6.50 (41 188)
MPAA: PG-13 - Детям до 13 лет просмотр не желателен-Качество: BDRip 720p / 60 FPS
Формат: MKV
Видео кодек: AVC
Аудио кодек: AC3
Видео: AVC, 1280x528 (2.40:1), 6057 kbps, 59,940 fps, 0,150 bpp
Аудио: Русский / AC3 / 5.1 / 48 kHz / 640 kbps / 16 bit - -

MI

General
Unique ID : 253991471363932989245896901271815414738 (0xBF14FA604C0EE0AB818ADE4D87FB63D2)
Complete name : E:КодировкаРаздачаШаг Вперёд 1-5Шаг Вперёд 4 60 fps.mkv
Format : Matroska
Format version : Version 4 / Version 2
File size : 4.62 GiB
Duration : 1h 38mn
Overall bit rate : 6 705 Kbps
Encoded date : UTC 2015-08-01 12:42:37
Writing application : mkvmerge v7.0.0 ('Where We Going') 64bit built on Jun 9 2014 15:16:27
Writing library : libebml v1.3.0 + libmatroska v1.4.1
Video
ID : 2
Format : AVC
Format/Info : Advanced Video Codec
Format profile : High@L4.1
Format settings, CABAC : Yes
Format settings, ReFrames : 9 frames
Codec ID : V_MPEG4/ISO/AVC
Duration : 1h 38mn
Bit rate : 6 057 Kbps
Width : 1 280 pixels
Height : 528 pixels
Display aspect ratio : 2.40:1
Frame rate : 59.940 fps
Color space : YUV
Chroma subsampling : 4:2:0
Bit depth : 8 bits
Scan type : Progressive
Bits/(Pixel*Frame) : 0.150
Stream size : 4.09 GiB (88%)
Writing library : x264 core 146 r2538 121396c
Encoding settings : cabac=1 / ref=9 / deblock=1:0:0 / analyse=0x3:0 / me=umh / subme=9 / psy=1 / psy_rd=0.00:0.00 / mixed_ref=1 / me_range=42 / chroma_me=0 / trellis=2 / 8x8dct=1 / cqm=0 / deadzone=21,11 / fast_pskip=0 / chroma_qp_offset=0 / threads=12 / lookahead_threads=3 / sliced_threads=0 / nr=0 / decimate=0 / interlaced=0 / bluray_compat=0 / constrained_intra=0 / bframes=16 / b_pyramid=2 / b_adapt=2 / b_bias=0 / direct=3 / weightb=1 / open_gop=0 / weightp=2 / keyint=250 / keyint_min=25 / scenecut=40 / intra_refresh=0 / rc=2pass / mbtree=0 / bitrate=6057 / ratetol=1.0 / qcomp=0.60 / qpmin=0 / qpmax=69 / qpstep=4 / cplxblur=20.0 / qblur=0.5 / ip_ratio=1.40 / pb_ratio=1.30 / aq=1:0.90
Language : English
Default : Yes
Forced : No
Audio
ID : 1
Format : AC-3
Format/Info : Audio Coding 3
Mode extension : CM (complete main)
Codec ID : A_AC3
Duration : 1h 38mn
Bit rate mode : Constant
Bit rate : 640 Kbps
Channel(s) : 6 channels
Channel positions : Front: L C R, Side: L R, LFE
Sampling rate : 48.0 KHz
Bit depth : 16 bits
Compression mode : Lossy
Stream size : 452 MiB (10%)
Language : Russian
Default : Yes
Forced : No

Скриншоты

Шаг Вперёд: Всё или ничего

-Название: Шаг вперёд: Всё или ничего
Оригинальное название: Step Up All In
Год выпуска: 2014
Страна: США
Жанр: драма, мелодрама, музыка
Продолжительность: 01:51:51
Перевод: Дубляж-Режиссер: Триш Си / Trish Sie-В ролях: Райан Гузман (Sean), Бриана Эвиган (Andie), Стивен Босс (Jason), Миша Гэбриел Хэмилтон (Eddy), Изабелла Мико (Alexxa Brava), Элисон Стоунер (Camille), Адам Дж. Севани (Moose), Стивен Стево Джонс (Jasper), Дэвид Шрейбман (Chad), Мари Кода (Jenny Kido), Кристофер Скотт (Hair), Луис Росадо (Monster)-Описание:
В переливающемся огнями Лас-Вегасе лучшие танцоры планеты сойдутся в батле, который решит все. Талантливый самоучка Шон и красотка Энди, мечтающие о славе и богатстве, примут участие в популярном реалити-шоу и бросят вызов «непобедимым» командам противников, а главное - самим себе. Смогут ли они преодолеть страх, пережить предательство и обуздать страсть, чтобы стать первыми и осуществить свои мечты?-Рейтинг

imdb.com: 5.90 (21 000)
MPAA: PG-13 - Детям до 13 лет просмотр не желателен-Качество: BDRip 720p / 60 FPS
Формат: MKV
Видео кодек: AVC
Аудио кодек: AC3
Видео: AVC, 1280x720 (16:9), 8259 kbps, 59,940 fps, 0,150 bpp
Аудио: Русский / AC3 / 5.1 / 48 kHz / 384 kbps / 16 bit - -

MI

General
Unique ID : 217980277076062101291287209761164581330 (0xA3FD796B1CDFBECBACC915FAC80959D2)
Complete name : E:КодировкаРаздачаШаг Вперёд 1-5Шаг Вперёд 5 60fps.mkv
Format : Matroska
Format version : Version 4 / Version 2
File size : 6.75 GiB
Duration : 1h 51mn
Overall bit rate : 8 642 Kbps
Encoded date : UTC 2015-08-02 17:04:42
Writing application : mkvmerge v7.0.0 ('Where We Going') 64bit built on Jun 9 2014 15:16:27
Writing library : libebml v1.3.0 + libmatroska v1.4.1
Video
ID : 2
Format : AVC
Format/Info : Advanced Video Codec
Format profile : High@L4.1
Format settings, CABAC : Yes
Format settings, ReFrames : 9 frames
Codec ID : V_MPEG4/ISO/AVC
Duration : 1h 51mn
Bit rate : 8 259 Kbps
Width : 1 280 pixels
Height : 720 pixels
Display aspect ratio : 16:9
Frame rate : 59.940 fps
Color space : YUV
Chroma subsampling : 4:2:0
Bit depth : 8 bits
Scan type : Progressive
Bits/(Pixel*Frame) : 0.150
Stream size : 6.32 GiB (94%)
Writing library : x264 core 146 r2538 121396c
Encoding settings : cabac=1 / ref=9 / deblock=1:0:0 / analyse=0x3:0 / me=umh / subme=9 / psy=1 / psy_rd=0.00:0.00 / mixed_ref=1 / me_range=42 / chroma_me=0 / trellis=2 / 8x8dct=1 / cqm=0 / deadzone=21,11 / fast_pskip=0 / chroma_qp_offset=0 / threads=12 / lookahead_threads=3 / sliced_threads=0 / nr=0 / decimate=0 / interlaced=0 / bluray_compat=0 / constrained_intra=0 / bframes=16 / b_pyramid=2 / b_adapt=2 / b_bias=0 / direct=3 / weightb=1 / open_gop=0 / weightp=2 / keyint=250 / keyint_min=25 / scenecut=40 / intra_refresh=0 / rc=2pass / mbtree=0 / bitrate=8259 / ratetol=1.0 / qcomp=0.60 / qpmin=0 / qpmax=69 / qpstep=4 / cplxblur=20.0 / qblur=0.5 / ip_ratio=1.40 / pb_ratio=1.30 / aq=1:0.90
Language : English
Default : Yes
Forced : No
Audio
ID : 1
Format : AC-3
Format/Info : Audio Coding 3
Mode extension : CM (complete main)
Codec ID : A_AC3
Duration : 1h 51mn
Bit rate mode : Constant
Bit rate : 384 Kbps
Channel(s) : 6 channels
Channel positions : Front: L C R, Side: L R, LFE
Sampling rate : 48.0 KHz
Bit depth : 16 bits
Compression mode : Lossy
Delay relative to video : 65ms
Stream size : 307 MiB (4%)
Language : Russian
Default : Yes
Forced : No

Скриншоты

--
[Профиль] [ЛС]
Кто просматривает тему:

Показать сообщения:    

Текущее время: Сегодня 20:26

Часовой пояс: GMT



Вы не можете начинать темы
Вы не можете отвечать на сообщения
Вы не можете редактировать свои сообщения
Вы не можете удалять свои сообщения
Вы не можете голосовать в опросах
Вы не можете прикреплять файлы к сообщениям
Вы не можете скачивать файлы