Шаг вперед 4 в 3Д / Step Up Revolution 3D (Скотт Спир / Scott Speer) [2012, драма, мелодрама, музыка, BDrip-avc] Half OverUnder / Вертикальная анаморфная стереопара (на весь экран)

 
Автор Сообщение

TorrentFilm ®

Пол:

Стаж: 1 год 11 месяцев

Сообщений: 7741



Награды: Нет

Торрент-статистика

Создавать темы 01-Янв-2016 00:10

[Цитировать]

Шаг вперед 4 3Д/ Step Up Revolution 3D«Горячее не бывает»
Год выпуска: 2012
Страна: США
Жанр: драма, мелодрама, музыка
Продолжительность: 01:38:38
Перевод: Профессиональный (дублированный)
Русские субтитры: есть
Режиссер: Скотт Спир / Scott Speer-Роли озвучивали:-Райан Гузман,Кэтрин МакКормик,Миша Гэбриел Хэмилтон,Клеопатра Коулмэн,Стивен Стэннерт,
Томми Дьюи,Питер Галлахер,Майкл «Ксено» Лэнджбек,Клаудио Пинто,Николь Дабо.
Роли дублировали:Александр Гаврилин,Вероника Саркисова,
Кирилл Туранский,Дмитрий Курта,Анна Денисова.
Описание:Эмили, дочь влиятельного бизнесмена, приезжает в Майами с намерением стать профессиональной танцовщицей, но влюбляется в Шона — юношу, чья танцевальная труппа устраивает музыкальные флэшмобы.Команда, называющаяся MOB, участвует в конкурсе с внушительным денежным призом, а тем временем отец Эмили намеревается перестроить родной район ребят и переселить тысячи людей.
Эмили присоединяется к танцорам и организует протестные мобы, рискуя не осуществить мечту, но сражаясь за нечто более важное.

Техн. детали съёмки

Премьера: 26 июля 2012 (26 июля 2012)
Бюджет: $33 000 000
Кассовые сборы: $140 470 746
Релиз на DVD и Blu-Ray: 27 ноября 2012

. .
Проверено на встроенном плейере ТВ LG LW 650S
--Дополнительная информация по релизу: Фильм без черных полос (я ни чего не обрезал) на весь экран.--Качество: BDrip
Контейнер: MKV
Формат 3D: Anamorph OverUnder / Вертикальная анаморфная стереопара
Порядок ракурсов: левый ракурс первый
Видео кодек: x264
Аудио кодек: AC3-Видео: AVC / 23,976 fps / 1920х1080p / 10,5 Mbps
Аудио 1: - Русский / AC3 / 48 KHz / 5.1 ch / 640 Kbps (Дубляж - BD EUR)
Аудио 2: - Украинский / AC3 / 48 KHz / 5.1 ch / 640 Kbps (Дубляж - BD EUR)
Аудио 3: - Английский / AC3 / 48 KHz / 5.1 ch / 640 Kbps
Субтитры вшитые softsub (SRT):
#1 - Русские полные(включены по умолчанию)
#2 - Английские full

MediaInfo

Общее
Уникальный идентификатор : 175505470930270452128105088815469455327 (0x84091FCAB56CB455B240A3876E6C67DF)
Полное имя : E:\3Д фильмы\Step Up Revolution (3D)2012.halfOU.1080p.AC3.Blu-ray CEE(m@rik05).mkv
Формат : Matroska
Версия формата : Version 4 / Version 2
Размер файла : 8,72 Гбайт
Продолжительность : 1 ч. 38 м.
Общий поток : 12,7 Мбит/сек
Название фильма : Step Up Revolution (2012) 3D-RuGroup
Дата кодирования : UTC 2010-02-22 21:41:31
Программа кодирования : mkvmerge v5.9.0 ('On The Loose') built on Dec 9 2012 15:37:01
Библиотека кодирования : libebml v1.3.0 + libmatroska v1.4.0
Видео
Идентификатор : 1
Формат : AVC
Формат/Информация : Advanced Video Codec
Профиль формата : High@L4.1
Параметр CABAC формата : Да
Параметр ReFrames формата : 4 кадра
Идентификатор кодека : V_MPEG4/ISO/AVC
Продолжительность : 1 ч. 38 м.
Битрейт : 10,5 Мбит/сек
Ширина : 1920 пикселей
Высота : 1080 пикселей
Соотношение сторон : 16:9
Режим частоты кадров : Постоянный
Частота кадров : 23,976 кадра/сек
Цветовое пространство : YUV
Субдискретизация насыщенности : 4:2:0
Битовая глубина : 8 бит
Тип развёртки : Прогрессивная
Бит/(Пиксели*Кадры) : 0.211
Размер потока : 7,22 Гбайт (83%)
Заголовок : rip by m@rik05 фильм без черных полос на весь экран
Библиотека кодирования : x264 core 116 r2074 2641b9e
Настройки программы : cabac=1 / ref=4 / deblock=1:-3:-3 / analyse=0x3:0x133 / me=umh / subme=9 / psy=1 / psy_rd=1.00:0.05 / mixed_ref=1 / me_range=16 / chroma_me=1 / trellis=2 / 8x8dct=1 / cqm=0 / deadzone=21,11 / fast_pskip=1 / chroma_qp_offset=-3 / threads=12 / sliced_threads=0 / nr=0 / decimate=1 / interlaced=0 / bluray_compat=0 / constrained_intra=0 / bframes=6 / b_pyramid=2 / b_adapt=2 / b_bias=0 / direct=3 / weightb=1 / open_gop=0 / weightp=2 / keyint=250 / keyint_min=23 / scenecut=40 / intra_refresh=0 / rc_lookahead=60 / rc=crf / mbtree=1 / crf=18.0 / qcomp=0.60 / qpmin=10 / qpmax=69 / qpstep=4 / vbv_maxrate=40000 / vbv_bufsize=40000 / crf_max=0.0 / nal_hrd=none / frame-packing=4 / ip_ratio=1.40 / aq=1:0.70
Язык : English
Default : Да
Forced : Нет
Аудио #1
Идентификатор : 2
Формат : AC-3
Формат/Информация : Audio Coding 3
Расширение режима : CM (complete main)
Параметр Endianness формата : Big
Идентификатор кодека : A_AC3
Продолжительность : 1 ч. 38 м.
Вид битрейта : Постоянный
Битрейт : 640 Кбит/сек
Каналы : 6 каналов
Расположение каналов : Front: L C R, Side: L R, LFE
Частота : 48,0 КГц
Битовая глубина : 16 бит
Метод сжатия : С потерями
Размер потока : 452 Мбайт (5%)
Заголовок : AC3 5.1 @ 640 kbps - Дублированный, Blu-ray CEE
Язык : Russian
Default : Да
Forced : Нет
Аудио #2
Идентификатор : 3
Формат : AC-3
Формат/Информация : Audio Coding 3
Расширение режима : CM (complete main)
Параметр Endianness формата : Big
Идентификатор кодека : A_AC3
Продолжительность : 1 ч. 38 м.
Вид битрейта : Постоянный
Битрейт : 640 Кбит/сек
Каналы : 6 каналов
Расположение каналов : Front: L C R, Side: L R, LFE
Частота : 48,0 КГц
Битовая глубина : 16 бит
Метод сжатия : С потерями
Размер потока : 452 Мбайт (5%)
Заголовок : AC3 5.1 @ 640 kbps - Дублированный, Blu-ray CEE
Язык : Ukrainian
Default : Нет
Forced : Нет
Аудио #3
Идентификатор : 4
Формат : AC-3
Формат/Информация : Audio Coding 3
Расширение режима : CM (complete main)
Параметр Endianness формата : Big
Идентификатор кодека : A_AC3
Продолжительность : 1 ч. 38 м.
Вид битрейта : Постоянный
Битрейт : 640 Кбит/сек
Каналы : 6 каналов
Расположение каналов : Front: L C R, Side: L R, LFE
Частота : 48,0 КГц
Битовая глубина : 16 бит
Метод сжатия : С потерями
Размер потока : 452 Мбайт (5%)
Заголовок : AC3 5.1 @ 640 kbps-оригинал
Язык : English
Default : Нет
Forced : Нет
Текст #1
Идентификатор : 5
Формат : UTF-8
Идентификатор кодека : S_TEXT/UTF8
Идентификатор кодека/Информация : UTF-8 Plain Text
Заголовок : полные
Язык : Russian
Default : Да
Forced : Нет
Текст #2
Идентификатор : 6
Формат : UTF-8
Идентификатор кодека : S_TEXT/UTF8
Идентификатор кодека/Информация : UTF-8 Plain Text
Заголовок : full
Язык : English
Default : Нет
Forced : Нет
Меню
00:00:00.000 : en:00:00:00.000
00:07:35.038 : en:00:07:35.038
00:16:56.224 : en:00:16:56.224
00:23:14.560 : en:00:23:14.560
00:34:17.514 : en:00:34:17.514
00:39:47.677 : en:00:39:47.677
00:48:50.803 : en:00:48:50.803
00:58:41.768 : en:00:58:41.768
01:03:36.646 : en:01:03:36.646
01:13:38.164 : en:01:13:38.164
01:26:38.860 : en:01:26:38.860
01:31:30.902 : en:01:31:30.902

Log x264

:
[Профиль] [ЛС]
Кто просматривает тему:

Показать сообщения:    

Текущее время: Сегодня 20:10

Часовой пояс: GMT



Вы не можете начинать темы
Вы не можете отвечать на сообщения
Вы не можете редактировать свои сообщения
Вы не можете удалять свои сообщения
Вы не можете голосовать в опросах
Вы не можете прикреплять файлы к сообщениям
Вы не можете скачивать файлы