Чёрный хром / Kuromukuro [S01] (2016) HDTVRip 720p | AniDub, SHIZA Project

 
Автор Сообщение

Russian Mafia ®

Пол:

Стаж: 1 год 8 месяцев

Сообщений: 4256



Награды: 10 (Подробнее)

Mega Seeder 2 (Количество: 1) Mega Seeder 5 (Количество: 1) Top Releaser 5 (Количество: 1)
Торрент-статистика

Создавать темы 09-Окт-2016 08:07

[Цитировать]

Информация о фильме
Название: Чёрный хром
Оригинальное название: Kuromukuro
Год выхода: 2016
Жанр: приключения, фантастика, меха
Режиссер: Окамура Тэнсай
Художник: Икэ Нобутака, Кодама Ёхэй
В ролях: Адзаками Ёхэй, Итимити Мао, Уэда Рэйна, Сэто Асами, Исикава Кайто, Кобаяси Юсукэ, Такэути Сюнсукэ, Сугихира Манами, Асакура Момо, Тодзё Канако, Кимура Рёхэй, Уэда Хикару, Кусуноки Тайтэн, Кониси Кацуюки, Линн, Кимура Дзюри, Макисима Коити, Тэдзука Хиромити, Сато Рина, Киути Хидэнобу, Гото Тэцуо
О фильме:
Во время строительства плотины Куробе обнаруживается какой-то древний артефакт, и для его изучения создаётся специальный исследовательский институт при ООН. Интеллектуалы со всего мира съезжаются в Японию, их дети ходят в специальную международную школу, а человечество совершает неслабый технологический рывок и создаёт гигантских человекоподобных роботов. И тут под воздействием артефакта от векового сна пробуждается самурай по имени Кенноске Токисада Оума, рассказывающий всем про каких-то злобных огров, которые хотят сожрать всех людей.
World Art | MAL
Страна: Япония
Студия: P.A. Works
Продолжительность: 00:24:00
Язык: Русский, Японский
Перевод: Любительский (многоголосый, закадровый), Любительский (двухголосый, закадровый)
Файл
Качество: HDTVRip
Формат: MKV
Кодек: H.264
Аудио кодек: AAC
Видео: 1280x720, 23.976 fps, 2300 kbps
Аудио RUS: 48.0 kHz, AAC, 2 ch, 192 kbps - AniDub (1-25)
Аудио RUS: 48.0 kHz, AAC, 2 ch, 192 kbps - SHIZA Project (1-22)
Аудио JAP: 48.0 kHz, AAC, 2 ch, 192 kbps
Субтитры: русские (встроенные полный перевод, ASS) - AOS
Релиз от:
Озвучивание: BalFor, Гамлетка Цезаревна, 9й Неизвестный, Oriko
Перевод: AOS
Тайминг и работа со звуком: Fraksinus
Релиз от:
Озвучивание: gobr, Viki
Перевод: AOS
Тайминг и работа со звуком: Daelit (01-04), Мисари (05-12), Dezraid (10-26)

Скриншоты

Список серий

01. Демоны с небес.
02. Пробуждение Чёрного реликта.
03. Руины замка не могут вернуть прошлое.
04. Незнакомый вкус расскажет обо всём.
05. Человек, пришедший в Сад Знаний.
06. Танец на берегах реки Дзиндзу.
07. Исчезновение на рассвете.
08. Демоны вернутся.
09. Смех демона в пещере.
10. Напыщенный пленник.
11. Правда во тьме.
12. Мгновение ада летом в Куробэ.
13. Привлечённые музыкой фестиваля.
14. На фестивале танцев Ракшаса.
15. Конец Ойваке.
16. Поток воссоединения.
17. Демон, танцующий в облаках.
18. Исчезновение Юкимуры.
19. Приглашение на демонический пир.
20. Утробу тигра пронзает пламя.
21. День падения крепости.
22. Демон, плачущий в поле Нарциссов.
23. Пение лягушки в снегу.
24. Реки крови у плотины Куробэ.
25. Что снится демону.
26. Самурай, что не оглядывается назад.

MediaInfo

General
Format : Matroska
Format version : Version 4 / Version 2
File size : 502 MiB
Duration : 23mn 59s
Overall bit rate : 2 923 Kbps
Encoded date : UTC 2016-05-20 18:59:39
Writing application : mkvmerge v8.3.0 ('Over the Horizon') 64bit
Writing library : libebml v1.3.1 + libmatroska v1.4.2
Video
ID : 1
Format : AVC
Format/Info : Advanced Video Codec
Format profile : High@L4.1
Format settings, CABAC : Yes
Format settings, ReFrames : 4 frames
Codec ID : V_MPEG4/ISO/AVC
Duration : 23mn 59s
Bit rate : 2 343 Kbps
Width : 1 280 pixels
Height : 720 pixels
Display aspect ratio : 16:9
Frame rate mode : Constant
Frame rate : 23.976 (24000/1001) fps
Color space : YUV
Chroma subsampling : 4:2:0
Bit depth : 8 bits
Scan type : Progressive
Bits/(Pixel*Frame) : 0.106
Stream size : 402 MiB (80%)
Writing library : x264 core 129 r2245+729M 1a52e03
Encoding settings : cabac=1 / ref=4 / deblock=1:1:-1 / analyse=0x3:0x113 / me=umh / subme=9 / psy=1 / fade_compensate=0.00 / psy_rd=1.00:0.00 / mixed_ref=1 / me_range=24 / chroma_me=1 / trellis=2 / 8x8dct=1 / cqm=0 / deadzone=21,11 / fast_pskip=1 / chroma_qp_offset=-2 / threads=8 / lookahead_threads=1 / sliced_threads=0 / nr=0 / decimate=1 / interlaced=0 / bluray_compat=0 / constrained_intra=0 / fgo=0 / bframes=9 / b_pyramid=2 / b_adapt=2 / b_bias=0 / direct=1 / weightb=1 / open_gop=0 / weightp=2 / keyint=240 / keyint_min=24 / scenecut=40 / intra_refresh=0 / rc=crf / mbtree=0 / crf=17.5 / qcomp=0.72 / qpmin=0 / qpmax=69 / qpstep=4 / ip_ratio=1.40 / pb_ratio=1.30 / aq=1:0.85
Language : Japanese
Default : Yes
Forced : No
Color range : Limited
Color primaries : BT.709
Transfer characteristics : BT.709
Matrix coefficients : BT.709
Audio #1
ID : 2
Format : AAC
Format/Info : Advanced Audio Codec
Format profile : LC
Codec ID : A_AAC
Duration : 23mn 59s
Bit rate : 192 Kbps
Channel(s) : 2 channels
Channel positions : Front: L R
Sampling rate : 48.0 KHz
Frame rate : 46.875 fps (1024 spf)
Compression mode : Lossy
Stream size : 33.0 MiB (7%)
Title : AniDub
Language : Russian
Default : Yes
Forced : No
Audio #2
ID : 3
Format : AAC
Format/Info : Advanced Audio Codec
Format profile : LC
Codec ID : A_AAC
Duration : 23mn 59s
Bit rate : 192 Kbps
Channel(s) : 2 channels
Channel positions : Front: L R
Sampling rate : 48.0 KHz
Frame rate : 46.875 fps (1024 spf)
Compression mode : Lossy
Stream size : 32.9 MiB (7%)
Title : SHIZA Project
Language : Russian
Default : No
Forced : No
Audio #3
ID : 4
Format : AAC
Format/Info : Advanced Audio Codec
Format profile : LC
Codec ID : A_AAC
Duration : 23mn 59s
Bit rate : 192 Kbps
Channel(s) : 2 channels
Channel positions : Front: L R
Sampling rate : 48.0 KHz
Frame rate : 46.875 fps (1024 spf)
Compression mode : Lossy
Stream size : 32.9 MiB (7%)
Title : Original
Language : Japanese
Default : No
Forced : No
Text
ID : 5
Format : ASS
Codec ID : S_TEXT/ASS
Codec ID/Info : Advanced Sub Station Alpha
Duration : 19mn 57s
Bit rate : 129 bps
Count of elements : 269
Compression mode : Lossless
Stream size : 18.9 KiB (0%)
Title : Полные субтитры
Language : Russian
Default : Yes
Forced : No

Раздача ведется путем добавления новых серий

Когда раздача ведётся путём добавления новых серий, при каждом добавлении создётся новый торрент. Чтобы начать докачку новой серии, пользователям необходимо сделать следующее:
(1) остановить скачивание,
(2) удалить старый торрент у себя из клиента (старые серии удалять не надо),
(3) скачать новый торрент и запустить его у себя в клиенте вместо старого, при этом указать клиенту путь в старую папку, куда и должно происходить скачивание новых серий.
Ваш клиент при этом должен произвести хеширование (проверку) старой папки (если не производит сам - помогите ему сделать это), и будет докачивать только те серии, которых у вас ещё нет. Старые серии при этом не удаляются, а продолжают раздаваться!
Eсли вы уже удалили старые серии, то предотвратить повторную закачку старых серий можно, отжав галочку в соответсвующих местах при запуске нового торрента. По возможности, желательно не удалять старые серии как можно дольше, чтобы релизёр не столько продолжал раздавать старые серии, а смог сконцентрироваться на новых.
[Профиль] [ЛС]
Показать сообщения:    

Текущее время: Сегодня 08:14

Часовой пояс: GMT



Вы не можете начинать темы
Вы не можете отвечать на сообщения
Вы не можете редактировать свои сообщения
Вы не можете удалять свои сообщения
Вы не можете голосовать в опросах
Вы не можете прикреплять файлы к сообщениям
Вы не можете скачивать файлы