Чёрные шары / Sorte kugler (Андерс Маттесен / Anders Matthesen) [2009, Дания, комедия, DVDRip] VO (PashaUP)

 
Автор Сообщение

TorrentFilm ®

Пол:

Стаж: 2 года

Сообщений: 7741



Награды: Нет

Торрент-статистика

Создавать темы 16-Янв-2015 00:00

[Цитировать]

Чёрные шары / Sorte kugler
Страна: Дания
Жанр: комедия
Год выпуска: 2009
Продолжительность: 01:19:07
Перевод: Одноголосый (закадровый) [PashaUP] по переводу [adelstein_s]
Оригинальная аудиодорожка: нет
Cубтитры: нет
Режиссер: Андерс Маттесен / Anders Matthesen
В ролях:Андерс Маттесен, Сёрен Рислунд, Ибен Дорнер Эстергорд, Малу Батц, Сёрен Маллинг, Томас Хартманн, Линда Педерсен, Джек Арнольд, Якоб Фауэрбю, Рене Диф, Бенгт Бург, Танне Соммер, Кит Эйхлер, Матильде Норхольт, Юлия Лунд, Мортен Роэд Фредериксен
Описание:Алекс Кляйн не особо удачливый 35-летний агент по недвижимости, как никогда близок к банкротству своей жизни. В один из дней, когда у Алекса все шло особенно из рук вон плохо, он попадает в автомобильную аварию. Очнувшись на том свете, Алекс становится участником пышной шоу-викторины. Проходя череду испытаний, Алекс должен набирать белые или черные шары. В зависимости от того, какие черты характера и личности в нем преобладают. Ведь от соотношения этих шаров и зависит, выживет ли Алекс, находящийся в критическом положении в больнице, или нет (Кинопоиск)

Качество: DVDRip
Контейнер: AVI
Видео: 704x384 (1.83:1), 25 fps, XviD build 64 ~2186 kbps avg, 0.32 bit/pixel
Аудио: 48 kHz, AC3 Dolby Digital, 2/0 (L,R) ch, ~192 kbps

MI

Общее
Полное имя : C:\Users\Пользователь\Downloads\Sorte_kugler_2009.avi
Формат : AVI
Формат/Информация : Audio Video Interleave
Размер файла : 1,32 Гбайт
Продолжительность : 1 ч. 19 м.
Общий поток : 2388 Кбит/сек
Программа кодирования : VirtualDubMod 1.5.10.2 (build 2540/release)
Библиотека кодирования : VirtualDubMod build 2540/release
Видео
Идентификатор : 0
Формат : MPEG-4 Visual
Профиль формата : Advanced Simple@L5
Параметр BVOP формата : 2
Параметр QPel формата : Нет
Параметр GMC формата : Без точки перехода
Параметр матрицы формата : Default (H.263)
Идентификатор кодека : XVID
Идентификатор кодека/Подсказка : XviD
Продолжительность : 1 ч. 19 м.
Битрейт : 2187 Кбит/сек
Ширина : 704 пикселя
Высота : 384 пикселя
Соотношение сторон : 1,85:1
Частота кадров : 25,000 кадров/сек
Цветовое пространство : YUV
Субдискретизация насыщенности : 4:2:0
Битовая глубина : 8 бит
Тип развёртки : Прогрессивная
Метод сжатия : С потерями
Бит/(Пиксели*Кадры) : 0.324
Размер потока : 1,21 Гбайт (92%)
Библиотека кодирования : XviD 64
Аудио
Идентификатор : 1
Формат : AC-3
Формат/Информация : Audio Coding 3
Расширение режима : CM (complete main)
Параметр Endianness формата : Big
Идентификатор кодека : 2000
Продолжительность : 1 ч. 19 м.
Вид битрейта : Постоянный
Битрейт : 192 Кбит/сек
Каналы : 2 канала
Расположение каналов : Front: L R
Частота : 48,0 КГц
Битовая глубина : 16 бит
Метод сжатия : С потерями
Размер потока : 109 Мбайт (8%)
Выравнивание : Разделение по промежуткам
Продолжительность промежутка : 40 мс. (1,00 видеокадр)
Время предзагрузки промежутка : 500 мс.

Скриншоты

[Профиль] [ЛС]

Создавать темы 06-Авг-2015 22:48 (спустя 6 месяцев 21 день)

Топик был перенесен из форума Фильмы до 2014 года в форум Фильмы до 2012 года
sergej644
 

Создавать темы 12-Июн-2016 08:48 (спустя 1 год 4 месяца)

Топик был перенесен из форума Фильмы 2011 года в форум Фильмы 2009 года
Russian Mafia
 
Показать сообщения:    

Текущее время: Сегодня 10:57

Часовой пояс: GMT



Вы не можете начинать темы
Вы не можете отвечать на сообщения
Вы не можете редактировать свои сообщения
Вы не можете удалять свои сообщения
Вы не можете голосовать в опросах
Вы не можете прикреплять файлы к сообщениям
Вы не можете скачивать файлы