Чёрные паруса / Black Sails (Сезон 1-2, Серии 1-18 из 18+ Bonus) (Нил Маршалл, Сэм Миллер, Т.Дж. Скотт) [2014-2015, Драма, приключения, HDTVRip-AVC 1080p] [DD5.1] [MVO] [AlexFilm+ Subs Rus,ENG]

 
Автор Сообщение

Враг Нароода ®

Стаж: 1 год 8 месяцев

Сообщений: 112



Награды: 2 (Подробнее)

За внесенный вклад в развитие сайта (Количество: 1) Mega Seeder 1 (Количество: 1)
Торрент-статистика

Создавать темы 18-Мар-2015 10:58

[Цитировать]

-- --Чёрные паруса / Black Sails Сезон 1-2, Серии 1-18 из 18+ Bonus-- -- --Год выпуска: 2014-2015
Выпущено:США, ЮАР, Film Afrika Worldwide CC, Platinum Dunes
Жанр: Драма, приключения
Продолжительность: 01:04:47
Сезон: 1-2
Серия: 1-18
Количество серий в сезоне: 18
Перевод: Ольга Галайда
Монтаж и сведение звука: Михаил Шорыгин
Озвучка:Профессиональная многоголосая закадровая(AlexFilm)Евгения Тихонова,Александр Воронов,Константин Погодаев,Михаил Суслов,Владимир Курдов,Владислав Даниловч
Субтитры: Русские, английские--Сайт сериала:
--Режиссер: Нил Маршалл, Сэм Миллер, Т.Дж. Скотт--В ролях: Тоби Стивенс, Ханна Нью, Люк Арнольд, Зэк Макгоун, Тоби Шмитц, Клара Пэджет, Марк Райан, Хаким Кае-Казим, Дилан Скьюс, Шон Майкл, Джессика Паркер Кеннеди, Том Хоппер-- 1715 год. Золотой век — вершина пиратства в Карибском море. Остров бывшей британской колонии Нью-Провиденс является территорией беззакония, контролируемый самыми известными пиратскими капитанами в истории. Самым грозным из них является капитан Флинт.Но британский флот возвращается в эти воды, угрожая уничтожить Флинта и его команду. Движимый глубокими, сложными, даже романтическими мотивами, Флинт становится союзником с грозной Элеонорой Гатри, дочерью местного вора в законе, который превращает добычу пиратов в прибыль. Вместе они создают план, охотясь за высшей наградой, выиграв которую, они остановят захват своего дома и обеспечат их выживание.Им противостоит ряд соперников: конкурент капитана, завидующий власти Флинта, отец Элеоноры, чьи амбиции на острове приводят к конфликту с дочерью, и молодой моряк, Джон Сильвер, недавно принятый в экипаж Флинта, которому каким-то образом удается постоянно срывать планы своего капитана.-- --Качество : HDTVRip-AVC 1080p
Формат: MPEG-4
Видео кодек: H264
Видео: 6214Кбит/сек,1920х1080(16.9),в 29.970кадр/сек,AVC(Baseline@L4.0)(1Ref Frames)
Аудио кодек: AAC
Аудио Russian Dolby Digital 5.1:451Кбит/сек,44.1КГц,6каналов,AAC,(Version4)(LC)--

Доп. информация:

Звуковая дорожка сделана путем наложения чистого голоса озвучивателей на центральный канал оригинальной дорожки. Качество идентично звуковой дорожке.
--

Список эпизодов сезонов

1СЕЗОН
Эпизод 1
Эпизод 2
Эпизод 3
Эпизод 4
Эпизод 5
Эпизод 6
Эпизод 7
Эпизод 8

1СЕЗОН
Эпизод 1
Эпизод 2
Эпизод 3
Эпизод 4
Эпизод 5
Эпизод 6
Эпизод 7
Эпизод 8
Эпизод 9
Эпизод 10
--

MediaInfo 1СЕЗОНА

General
Полное имя : D:\Ф А Н Т А С Т И К А +П Р И К Л Ю Ч Е Н И Я + Ф Э Н Т А З И\Черные Паруса\BLASK_SAILS_2014_S01_RUS[AlexFilm]_DD5.1_x264_Nikolai.Baranov_HDTVRip-AVC_(1080p)\BLASK_SAILS_2014_S01E01_RUS[AlexFilm]_DD5.1_x264_Nikolai.Baranov_HDTVRip-AVC_(1080p).mp4
Формат : MPEG-4
Профиль формата : Base Media
Идентификатор кодека : isom
Размер файла : 3.02 GiB
Продолжительность : 1h 4mn
Режим общего битрейта : Variable
Общий поток : 6 670 Kbps
Название фильма : Almost Human 1x01 Pilot @ AlexFilm
Дата кодирования : UTC 2014-01-22 12:18:22
Дата пометки : UTC 2014-01-22 12:18:22
Программа кодирования : Lavf51.12.1
Video
Идентификатор : 1
Формат : AVC
Формат/Информация : Advanced Video Codec
Профиль формата : Baseline@L4.0
Параметр CABAC формата : No
Параметр ReFrames формата : 1 frame
Параметр GOP формата : M=1, N=12
Идентификатор кодека : avc1
Идентификатор кодека/Информация : Advanced Video Coding
Продолжительность : 1h 4mn
Битрейт : 6 214 Kbps
Ширина : 1 920 pixels
Высота : 1 080 pixels
Соотношение сторон : 16:9
Режим частоты кадров : Constant
Частота кадров : 29.970 fps
Цветовое пространство : YUV
Субдискретизация насыщенности : 4:2:0
Битовая глубина : 8 bits
Тип развёртки : Progressive
Бит/(Пиксели*Кадры) : 0.100
Размер потока : 2.81 GiB (93%)
Язык : English
Дата кодирования : UTC 2014-01-22 12:18:22
Дата пометки : UTC 2014-01-22 12:18:22
Audio
Идентификатор : 2
Формат : AAC
Формат/Информация : Advanced Audio Codec
Профиль формата : LC
Идентификатор кодека : 40
Продолжительность : 1h 4mn
Вид битрейта : Variable
Битрейт : 451 Kbps
Каналы : 6 channels
Расположение каналов : Front: L C R, Side: L R, LFE
Частота : 44.1 KHz
Метод сжатия : Lossy
Размер потока : 209 MiB (7%)
Язык : Russian
Дата кодирования : UTC 2014-01-22 12:18:22
Дата пометки : UTC 2014-01-22 12:18:22
--

MediaInfo 2СЕЗОНА

General
Полное имя : G:\С Е Р И А Л Ы\ЧЁРНЫЕ ПАРУСА\BLASK_SAILS_S01_-_S02_RUS[AlexFilm]_DD5.1_x264_Nikolai.Baranov_HDTVRip-AVC_(1080p)\S02\BLASK_SAILS_2015_S02E01_RUS[AlexFilm]_DD5.1_x264_Nikolai.Baranov_HDTVRip-AVC_(1080p).mp4
Формат : MPEG-4
Профиль формата : Base Media
Идентификатор кодека : isom
Размер файла : 2.70 GiB
Продолжительность : 52mn 19s
Режим общего битрейта : Variable
Общий поток : 7 378 Kbps
Название фильма : Black Sails 2x01 @ AlexFilm
Дата кодирования : UTC 2015-02-03 10:41:05
Дата пометки : UTC 2015-02-03 10:41:05
Программа кодирования : Lavf51.12.1
Video
Идентификатор : 1
Формат : AVC
Формат/Информация : Advanced Video Codec
Профиль формата : Baseline@L4.0
Параметр CABAC формата : No
Параметр ReFrames формата : 1 frame
Параметр GOP формата : M=1, N=12
Идентификатор кодека : avc1
Идентификатор кодека/Информация : Advanced Video Coding
Продолжительность : 52mn 19s
Вид битрейта : Variable
Битрейт : 6 885 Kbps
Максимальный битрейт : 9 900 Kbps
Ширина : 1 920 pixels
Высота : 1 080 pixels
Соотношение сторон : 16:9
Режим частоты кадров : Constant
Частота кадров : 25.000 fps
Частота кадров в оригинале : 24.000 fps
Цветовое пространство : YUV
Субдискретизация насыщенности : 4:2:0
Битовая глубина : 8 bits
Тип развёртки : Progressive
Бит/(Пиксели*Кадры) : 0.133
Размер потока : 2.52 GiB (93%)
Язык : English
Дата кодирования : UTC 2015-02-03 10:41:05
Дата пометки : UTC 2015-02-03 10:41:05
Audio
Идентификатор : 2
Формат : AAC
Формат/Информация : Advanced Audio Codec
Профиль формата : LC
Идентификатор кодека : 40
Продолжительность : 52mn 19s
Вид битрейта : Variable
Битрейт : 488 Kbps
Каналы : 2 channels
Channel(s)_Original : 6 channels
Расположение каналов : Front: L C R, Side: L R, LFE
Частота : 48.0 KHz
Метод сжатия : Lossy
Размер потока : 183 MiB (7%)
Язык : Russian
Дата кодирования : UTC 2015-02-03 10:41:05
Дата пометки : UTC 2015-02-03 10:41:05
--

Скриншоты 1СЕЗОНА

--

Скриншоты 2СЕЗОНА

--
1СЕЗОН
-
2СЕЗОН
--

Bonus

--Bear McCreary - Black Sails (1 сезон)
(A Starz Original Series Soundtrack)
--Жанр: Score / Soundtrack
Композиторы: Bear McCreary
Год выпуска диска: 2014
Страна-производитель диска: США
Аудиокодек: MP3
Тип рипа: tracks
Битрейт аудио: 320 kbps
Продолжительность: 1:18:37
Наличие сканов в содержимом раздачи: нет

Треклист:

01. Theme from Black Sails
02. Nassau Shores
03. L'urca de Lima
04. The Banner of Captain Flint
05. Captain Kidd
06. On the Beach
07. Wondrous Love
08. The Wrecks
09. Silver Overboard
10. A Nation of Thieves
11. All Saints
12. Black Sails Theme and Variations
13. Streets of Nassau
14. The Andromache
15. Clamanda
16. Vane's Visions
17. Funeral at Sea
18. The Parson's Farewell
19. Pieces of Eight
20. Black Sails Main Title
21. The Golden Vanity (feat. Doug Lacy)
--

Как закачать отдельный файл

1. Открыть торрент
2. Снять галки с тех файлов торрента, которые мы не хотим закачивать. Оставляем только на нужных нам файлах (файле).
3. Нажать О.К.
В клиенте utorrent
Инструкция
1) Открыть торрент

2) Снять галки с тех файлов торрента, которые мы не хотим закачивать:
* либо вручную, снимая с каждого файла галку( скрин №1)
* либо, нажав кнопку "Снять метки (Select None)", сняв сразу со всех файлов(скрин №2)
№1

№2

Оставляем только на нужных нам файлах (файле).

3)Нажать О.К
-- -- -- --Внимание!!! 02.04. 2015. РАЗДАЧА ОБНОВЛЕНА.ФИНАЛ СЕЗОНА. ОБНОВИТЕ ТОРЕНТ ФАЙЛ.ПРИЯТНОГО ПРОСМОТРА . --Релиз от: Nikolai.Baranov -- -- -- --
[Профиль] [ЛС]
Показать сообщения:    

Текущее время: Сегодня 07:15

Часовой пояс: GMT



Вы не можете начинать темы
Вы не можете отвечать на сообщения
Вы не можете редактировать свои сообщения
Вы не можете удалять свои сообщения
Вы не можете голосовать в опросах
Вы не можете прикреплять файлы к сообщениям
Вы не можете скачивать файлы