Чёрные небеса / L\'autre monde / Black Heaven (Жиль Маршан / Gilles Marchand) [2010, Франция, Бельгия, драма, BDRip] MVO (Первый канал)

 
Автор Сообщение

TorrentFilm ®

Пол:

Стаж: 2 года

Сообщений: 7741



Награды: Нет

Торрент-статистика

Создавать темы 04-Фев-2015 00:01

[Цитировать]

Чёрные небеса
L'autre monde
Black Heaven

Страна: Франция, Бельгия
Жанр: драма
Год выпуска: 2010
Продолжительность: 01:45:16-Перевод: Профессиональный (многоголосый закадровый)
Первый канал

Cубтитры: нет
Оригинальная аудиодорожка: нет-Режиссер: Жиль Маршан / Gilles Marchand
В ролях: Грегуар Лепренс-Ренге, Луиз Бургуан, Мельвиль Пупо, Полин Этьен, Пьере Нинэ, Али Мархьяр, Сванн Арло, Патрик Декам-Описание: Гаспар и Марион — молодая парочка, отдыхают и весело проводят время до тех пор, пока случайно найденный сотовый телефон не побуждает их найти владельца. Из SMS-переписки они узнают, что хозяйка мобильника в указанное время будет в одной из местных часовен города. Подстегиваемые любопытством, молодые люди поначалу просто наблюдают за незнакомкой и её спутником, пока те не намереваются покончить жизнь самоубийством. Спасти удается лишь девушку. Из её слов Гаспар узнает о некой он-лайн игре под названием «Black Hole», что и побудила барышню совершить столь опрометчивый поступок-Доп. информация:
О переводе: Перевод на трекере появляется впервые
Качество: цифровой эфир (Первый канал)
Исходник и синхронизация: mister55555-Сэмпл: минута59сек-Качество видео: BDRip (BDRemux)
Формат видео: AVI
Видео: XviD, 720x304, 2,35:1, 23,976 кадра/сек, 1807 Кбит/сек
Аудио: AC-3, 48,0 КГц, 192 Кбит/сек, 2 канала (многоголосый Первый канал)

MediaInfo

Общее
Полное имя : D:\с диска Е\инет\Раздачи\Чёрные небеса.2010.BDRip.1канал3\Чёрные небеса.2010.BDRip.1канал.avi
Формат : AVI
Формат/Информация : Audio Video Interleave
Размер файла : 1,48 Гбайт
Продолжительность : 1 ч. 45 м.
Общий поток : 2008 Кбит/сек
Дата записи : 03.02.2015
Программа кодирования : VirtualDubModRus 1.5.10.2 (build 2542/release)
Библиотека кодирования : VirtualDubMod build 2542/release
Правообладатель : mister55555
Примечание : для torrentfilm.net
Видео
Идентификатор : 0
Формат : MPEG-4 Visual
Профиль формата : Advanced Simple@L5
Параметр BVOP формата : 1
Параметр QPel формата : Нет
Параметр GMC формата : Без точки перехода
Параметр матрицы формата : Выборочная
Идентификатор кодека : XVID
Идентификатор кодека/Подсказка : XviD
Продолжительность : 1 ч. 45 м.
Битрейт : 1807 Кбит/сек
Ширина : 720 пикселей
Высота : 304 пикселя
Соотношение сторон : 2,35:1
Частота кадров : 23,976 кадра/сек
Цветовое пространство : YUV
Субдискретизация насыщенности : 4:2:0
Битовая глубина : 8 бит
Тип развёртки : Прогрессивная
Метод сжатия : С потерями
Бит/(Пиксели*Кадры) : 0.344
Размер потока : 1,33 Гбайт (90%)
Библиотека кодирования : XviD 73
Аудио
Идентификатор : 1
Формат : AC-3
Формат/Информация : Audio Coding 3
Расширение режима : CM (complete main)
Параметр Endianness формата : Big
Идентификатор кодека : 2000
Продолжительность : 1 ч. 45 м.
Вид битрейта : Постоянный
Битрейт : 192 Кбит/сек
Каналы : 2 канала
Расположение каналов : Front: L R
Частота : 48,0 КГц
Битовая глубина : 16 бит
Метод сжатия : С потерями
Размер потока : 145 Мбайт (10%)
Выравнивание : Разделение по промежуткам
Продолжительность промежутка : 42 мс. (1,00 видеокадр)
Время предзагрузки промежутка : 500 мс.
Заголовок : многоголосый Первый канал

Скриншот c названием фильма

[Профиль] [ЛС]

Создавать темы 06-Авг-2015 22:47 (спустя 6 месяцев 2 дня)

Топик был перенесен из форума Фильмы до 2014 года в форум Фильмы до 2012 года
sergej644
 

Создавать темы 12-Июн-2016 07:54 (спустя 1 год 4 месяца)

Топик был перенесен из форума Фильмы 2011 года в форум Фильмы 2010 года
Russian Mafia
 
Показать сообщения:    

Текущее время: Сегодня 06:06

Часовой пояс: GMT



Вы не можете начинать темы
Вы не можете отвечать на сообщения
Вы не можете редактировать свои сообщения
Вы не можете удалять свои сообщения
Вы не можете голосовать в опросах
Вы не можете прикреплять файлы к сообщениям
Вы не можете скачивать файлы