Ч/Б (Евгений Шелякин) [2014, Россия, комедия, криминал, фантастика, HDTV 1080i]

 
Автор Сообщение

TorrentFilm ®

Пол:

Стаж: 2 года

Сообщений: 7741



Награды: Нет

Торрент-статистика

Создавать темы 10-Мар-2016 00:08

[Цитировать]

Ч/Б- -Страна: Россия
Жанр: комедия, криминал, фантастика
Год выпуска: 2014
Производство: «RSS Production»
Продолжительность: 01:29:02
Оригинальная аудиодорожка: русский
Cубтитры: нет-Режиссер: Евгений Шелякин-В ролях:
Алексей Чадов, Мераб Нинидзе, Сергей Маковецкий, Гурам Баблишвили, Бесо Гатаев,
Кахи Кавсадзе, Екатерина Редникова, Мария Андреева, Мария Звонарёва, Андрей Руденский-Описание:
Наши дни. Опасного авторитета-интеллектуала Алхана одновременно решают ограбить обманутый им Ярослав и мелкий жулик Нурик. По случайности во время их столкновения Нурик погибает, но возвращается в мир с миссией: быть ангелом-хранителем Ярослава. Вот только Ярослав при этом страдает «аллергией на Кавказ». Мистическим образом скованные вместе, эти двое вынуждены искать общий язык и спасаться от жаждущего расправы Алхана с его подручными.-Возраст: 16+-Качество: HDTV (1080i)
Формат: TS
Видео кодек: AVC
Аудио кодек: MPEG Audio

Видео: AVC, 1920 х 1080 (16:9), 25,000 кадр/сек, 9 880 Кбит/сек, 0.191 bit/pixel
Аудио: MPEG Audio 2, 48000 Hz, 192 Kbps, 2 канала
-

MediaInfo

General
ID : 1 (0x1)
Complete name : E:\ЧБ HDTV (1080i)\ЧБ HDTV (1080i).ts
Format : MPEG-TS
File size : 6.59 GiB
Duration : 1h 29mn
Overall bit rate mode : Variable
Overall bit rate : 10.6 Mbps
Video
ID : 4096 (0x1000)
Menu ID : 1 (0x1)
Format : AVC
Format/Info : Advanced Video Codec
Format profile : High@L4.1
Format settings, CABAC : Yes
Format settings, ReFrames : 3 frames
Format settings, GOP : M=3, N=33
Codec ID : 27
Duration : 1h 29mn
Bit rate mode : Constant
Bit rate : 9 880 Kbps
Width : 1 920 pixels
Height : 1 080 pixels
Display aspect ratio : 16:9
Frame rate : 25.000 fps
Standard : PAL
Color space : YUV
Chroma subsampling : 4:2:0
Bit depth : 8 bits
Scan type : Interlaced
Scan type, store method : Separated fields
Scan order : Top Field First
Bits/(Pixel*Frame) : 0.191
Stream size : 6.14 GiB (93%)
Color range : Limited
Color primaries : BT.709
Transfer characteristics : BT.709
Matrix coefficients : BT.709
Audio
ID : 4608 (0x1200)
Menu ID : 1 (0x1)
Format : MPEG Audio
Format version : Version 1
Format profile : Layer 2
Codec ID : 3
Duration : 1h 29mn
Bit rate mode : Constant
Bit rate : 192 Kbps
Channel(s) : 2 channels
Sampling rate : 48.0 KHz
Compression mode : Lossy
Stream size : 122 MiB (2%)
Language : English

Скриншоты


-Раздаю до первых 5-ти скачавших, на раздачи не возвращаюсь...-
[Профиль] [ЛС]
Кто просматривает тему:

Показать сообщения:    

Текущее время: Сегодня 08:16

Часовой пояс: GMT



Вы не можете начинать темы
Вы не можете отвечать на сообщения
Вы не можете редактировать свои сообщения
Вы не можете удалять свои сообщения
Вы не можете голосовать в опросах
Вы не можете прикреплять файлы к сообщениям
Вы не можете скачивать файлы