Ч/Б (2014) WEB-DL [1080p]

 
Автор Сообщение

достали все ®

Пол:

Стаж: 1 год 8 месяцев

Сообщений: 6565



Награды: 12 (Подробнее)

За внесенный вклад в развитие сайта (Количество: 1) Top Releaser 2 (Количество: 1) Mega Releaser 1 (Количество: 1)
Торрент-статистика

Создавать темы 24-Апр-2015 10:04

[Цитировать]

-Ч/Б (2014) WEB-DL [H.264/1080p-LQ]- Производство: Россия / RSS Production
Жанр: Комедия, Криминал, Фантастика
Режиссер: Евгений Шелякин
Актеры: Алексей Чадов, Мераб Нинидзе, Сергей Маковецкий, Гурам Баблишвили, Бесо Гатаев, Кахи Кавсадзе, Екатерина Редникова, Мария Андреева, Мария Звонарева, Андрей Руденский
Описание:
Наши дни. Опасного авторитета-интеллектуала Алхана одновременно решают ограбить обманутый им Ярослав и мелкий жулик Нурик. По случайности во время их столкновения Нурик погибает, но возвращается в мир с миссией: быть ангелом-хранителем Ярослава. Вот только Ярослав при этом страдает «аллергией на Кавказ». Мистическим образом скованные вместе, эти двое вынуждены искать общий язык и спасаться от жаждущего расправы Алхана с его подручными.

Дата мировой премьеры: 19 марта 2015
Дата российской премьеры: 19 марта 2015, «Вольга»
Продолжительность: 01:27:04
Качество видео: WEB-DL 1080p-LQ
Перевод: Не требуется (русский)
Субтитры: Отсутствуют
Видеокодек: MPEG-4 AVC/H.264
Битрейт видео: ~4347 kb/s
Размер кадра: 1920x800
Аудио: 48,0 kHz, AC3, 5/1 384 kb/s
Сэмпл: Скачать

Mediainfo:

Общее
Уникальный идентификатор                 : 189529674726377547413420814712730135019 (0x8E96166C5595114AAA5F7E42B1BDA9EB)
Полное имя                               : Ch.B.2015.O.WEB-DL.1080p.nnm-club.mkv
Формат                                   : Matroska
Версия формата                           : Version 4 / Version 2
Размер файла                             : 3,00 Гбайт
Продолжительность                        : 1 ч. 29 м.
Общий поток                              : 4827 Кбит/сек
Дата кодирования                         : UTC 2015-04-23 21:21:00
Программа кодирования                    : mkvmerge v7.6.0 ('Garden of Dreams') 32bit built on Feb  8 2015 12:51:39
Библиотека кодирования                   : libebml v1.3.1 + libmatroska v1.4.2
DURATION                                 : 01:29:04.544000000
NUMBER_OF_FRAMES                         : 167017
NUMBER_OF_BYTES                          : 256538112
_STATISTICS_WRITING_APP                  : mkvmerge v7.6.0 ('Garden of Dreams') 32bit built on Feb  8 2015 12:51:39
_STATISTICS_WRITING_DATE_UTC             : 2015-04-23 21:21:00
_STATISTICS_TAGS                         : BPS DURATION NUMBER_OF_FRAMES NUMBER_OF_BYTES
Видео
Идентификатор                            : 1
Формат                                   : AVC
Формат/Информация                        : Advanced Video Codec
Профиль формата                          : [url=mailto:High@L4.0]High@L4.0[/url]
Параметр CABAC формата                   : Да
Параметр ReFrames формата                : 5 кадров
Идентификатор кодека                     : V_MPEG4/ISO/AVC
Продолжительность                        : 1 ч. 29 м.
Битрейт                                  : 4347 Кбит/сек
Ширина                                   : 1920 пикселей
Высота                                   : 800 пикселей
Соотношение сторон                       : 2,40:1
Режим частоты кадров                     : Постоянный
Частота кадров                           : 25,000 кадров/сек
Цветовое пространство                    : YUV
Субдискретизация насыщенности            : 4:2:0
Битовая глубина                          : 8 бит
Тип развёртки                            : Прогрессивная
Бит/(Пиксели*Кадры)                      : 0.113
Размер потока                            : 2,70 Гбайт (90%)
Язык                                     : English
Default                                  : Да
Forced                                   : Нет
Основные цвета                           : BT.709
Характеристики трансфера                 : BT.709
Коэффициенты матрицы                     : BT.709
colour_range                             : Limited
Аудио
Идентификатор                            : 2
Формат                                   : AC-3
Формат/Информация                        : Audio Coding 3
Расширение режима                        : CM (complete main)
Параметр Endianness формата              : Big
Идентификатор кодека                     : A_AC3
Продолжительность                        : 1 ч. 29 м.
Вид битрейта                             : Постоянный
Битрейт                                  : 384 Кбит/сек
Каналы                                   : 6 каналов
Расположение каналов                     : Front: L C R, Side: L R, LFE
Частота                                  : 48,0 КГц
Битовая глубина                          : 16 бит
Метод сжатия                             : С потерями
Размер потока                            : 245 Мбайт (8%)
Язык                                     : Russian
Default                                  : Да
Forced                                   : Нет
Меню
00:00:00.000                             : en:Глава 1
00:01:34.000                             : en:Глава 2
00:04:55.000                             : en:Глава 3
00:08:54.000                             : en:Глава 4
00:13:33.000                             : en:Глава 5
00:18:07.000                             : en:Глава 6
00:22:26.000                             : en:Глава 7
00:28:06.000                             : en:Глава 8
00:33:28.000                             : en:Глава 9
00:37:56.000                             : en:Глава 10
00:44:28.000                             : en:Глава 11
00:49:31.000                             : en:Глава 12
00:55:14.000                             : en:Глава 13
00:59:56.000                             : en:Глава 14
01:06:03.000                             : en:Глава 15
01:09:47.000                             : en:Глава 16
01:15:40.000                             : en:Глава 17
01:21:19.000                             : en:Глава 18
Скриншоты:
[Профиль] [ЛС]
Кто просматривает тему:

Форум Тема Автор Размер
Фильмы (HD Rips | 720p, 1080p) Ч/Б (2015) HDTV 1080i достали все 6.59 GB
Показать сообщения:    

Текущее время: Сегодня 12:28

Часовой пояс: GMT



Вы не можете начинать темы
Вы не можете отвечать на сообщения
Вы не можете редактировать свои сообщения
Вы не можете удалять свои сообщения
Вы не можете голосовать в опросах
Вы не можете прикреплять файлы к сообщениям
Вы не можете скачивать файлы