Чучело-Мяучело (Инесса Ковалевская) [1982 г., мультфильм, DVB]

 
Автор Сообщение

TorrentFilm ®

Пол:

Стаж: 1 год 11 месяцев

Сообщений: 7741



Награды: Нет

Торрент-статистика

Создавать темы 04-Июл-2015 00:07

[Цитировать]

Чучело-Мяучело
Страна: СССР, Союзмультфильм
Жанр: мультфильм
Год выпуска: 1982
Продолжительность: 00:09:10
Режиссёр: Инесса Ковалевская
Описание: мультфильм о том как о том, как Чучело-Мяучело показывает, что песня и хорошее настроение всегда помогают в работе ...
Доп. информация:

Релиз группы:
Трансляция спутникового канала:

Качество видео: DVB
Формат видео: MPEG-PS
Видео: MPEG2 Video, 720x576 (4:3), 25 fps, 3200 kbps
Аудио: MPEG Audiо, 2 сh, 48 kHz, 192 kbps

MediaInfo

General
Complete name : D:\Чучело-Мяучело. (1982)_DVB by SLuMeP.mpg
Format : MPEG-PS
File size : 227 MiB
Duration : 9mn 10s
Overall bit rate mode : Variable
Overall bit rate : 3 463 Kbps
Video
ID : 224 (0xE0)
Format : MPEG Video
Format version : Version 2
Format profile : Main@Main
Format settings, BVOP : No
Format settings, Matrix : Custom
Format settings, GOP : M=3, N=12
Duration : 9mn 10s
Bit rate mode : Variable
Bit rate : 3 202 Kbps
Maximum bit rate : 5 000 Kbps
Width : 720 pixels
Height : 576 pixels
Display aspect ratio : 4:3
Frame rate : 25.000 fps
Standard : PAL
Color space : YUV
Chroma subsampling : 4:2:0
Bit depth : 8 bits
Scan type : Interlaced
Scan order : Top Field First
Compression mode : Lossy
Bits/(Pixel*Frame) : 0.309
Time code of first frame : 00:00:00:00
Time code source : Group of pictures header
Stream size : 210 MiB (92%)
Audio
ID : 192 (0xC0)
Format : MPEG Audio
Format version : Version 1
Format profile : Layer 2
Duration : 9mn 10s
Bit rate mode : Constant
Bit rate : 192 Kbps
Channel(s) : 2 channels
Sampling rate : 48.0 KHz
Compression mode : Lossy
Stream size : 12.6 MiB (6%)

Скриншоты


[Профиль] [ЛС]
Кто просматривает тему:

Форум Тема Автор Размер
Фильмы (DVD 5/9) Чучело (Ролан Быков, Аркадий Хайт) [1983, СССР, драма, DVD5 (Сжатый)] TorrentFilm 4.35 GB
Показать сообщения:    

Текущее время: Сегодня 09:58

Часовой пояс: GMT



Вы не можете начинать темы
Вы не можете отвечать на сообщения
Вы не можете редактировать свои сообщения
Вы не можете удалять свои сообщения
Вы не можете голосовать в опросах
Вы не можете прикреплять файлы к сообщениям
Вы не можете скачивать файлы