Чуффык (Леонид Каюков) [1993, Мультфильм, DVB]

 
Автор Сообщение

painkiller ®

Стаж: 2 года 3 месяца

Сообщений: 582



Награды: Нет

Торрент-статистика

Создавать темы 27-Авг-2014 19:32

[Цитировать]

Чуффык-Страна: Россия
Жанр: Мультфильм
Продолжительность: 00:09:34
Год выпуска: 1993
Русские субтитры: нет-Режиссёр: Леонид Каюков
Роли озвучивали: Л. Румянова Г. Вицин Л. Дуров Л. Куравлев-Описание: По мотивам сказки Евгения Чарушина про охотника, высказавшего перед сном в новогоднюю ночь пожелание стать маленьким-маленьким и оказаться в лесу, чтобы получше все разузнать о жизни лесных обитателей- | Релиз: -Качество: DVB
Формат: TS
Видео: 720x576 (4:3) @ 786x576, 25.000 fps, AVC, ~3083 Kbps, 0.297 bits/pixel
Аудио: 48.0 KHz, MPEG-1 Audio layer 2, 2 ch, 256 Kbps

MediaInfo

GeneralID : 1 (0x1)Complete name : Чуффык.1993.CTC-4.tsFormat : MPEG-TSFile size : 241 MiBDuration : 9mn 34sOverall bit rate mode : VariableOverall bit rate : 3 516 Kbps
VideoID : 1250 (0x4E2)Menu ID : 1 (0x1)Format : AVCFormat/Info : Advanced Video CodecFormat profile : High@L3.0Format settings, CABAC : YesFormat settings, ReFrames : 3 framesCodec ID : 27Duration : 9mn 34sBit rate : 3 083 KbpsWidth : 720 pixelsHeight : 576 pixelsDisplay aspect ratio : 4:3Frame rate : 25.000 fpsStandard : ComponentColor space : YUVChroma subsampling : 4:2:0Bit depth : 8 bitsScan type : InterlacedScan order : Top Field FirstBits/(Pixel*Frame) : 0.297Stream size : 211 MiB (88%)Color primaries : BT.601 PALTransfer characteristics : BT.470 System B, BT.470 System GMatrix coefficients : BT.601
AudioID : 2250 (0x8CA)Menu ID : 1 (0x1)Format : MPEG AudioFormat version : Version 1Format profile : Layer 2Codec ID : 3Duration : 9mn 33sBit rate mode : ConstantBit rate : 256 KbpsChannel(s) : 2 channelsSampling rate : 48.0 KHzCompression mode : LossyStream size : 17.5 MiB (7%)
Сравнение с DVD">

Скриншоты Сравнение с DVD


http://torrentfilm.net/forum/viewtopic.php?t=2824980
http://screenshotcomparison.com/comparison/11039
На DVD накручена цветность и подавлен шум, несколько утеряна детализация.
[Профиль] [ЛС]
Кто просматривает тему:

Форум Тема Автор Размер
Отечественные мультфильмы Чуффык (Леонид Каюков) [1993, мультфильм, DVB] TorrentFilm 218 MB
Показать сообщения:    

Текущее время: Сегодня 10:50

Часовой пояс: GMT



Вы не можете начинать темы
Вы не можете отвечать на сообщения
Вы не можете редактировать свои сообщения
Вы не можете удалять свои сообщения
Вы не можете голосовать в опросах
Вы не можете прикреплять файлы к сообщениям
Вы не можете скачивать файлы