Чужой / Alien (1979-1997) BDRip 1080p-LQ | 60 fps | Theatrical cut | Квадрология

 
Автор Сообщение

sergej644 ®

Пол:

Стаж: 4 года 11 месяцев

Сообщений: 6046

Откуда: Soviet Union



Награды: Нет

Торрент-статистика

Создавать темы 24-Янв-2015 00:00

[Цитировать]

Чужой / Alien (1979-1997) BDRip 1080p-LQ | 60 fps | Theatrical cut | Квадрология- Жанр: Фантастика, Ужасы, Боевик
Года производства: 1979, 1986, 1992, 1997
Произведено: США, Великобритания
Продолжительность: 01:56:38; 02:17:14; 01:54:52; 01:48:48Описание
Его взгляд — это взгляд пустоты. Его челюсти — коварная улыбка самой Смерти. Его тело — идеальная машина для убийств. Нет и ни малейшего сомнения, что это само совершенство!Образ монстра создан так детально и кропотливо, что кажется, его создавали вовсе не люди. И это восхищает.
Автор рипа: Tiberiumsun69

Внимание!

Перед скачиванием обязательно проверьте Сэмплы на своем оборудовании.

Дополнительная информация

Оптимальные настройки http://www.svp-team.com/wiki/Аппаратные_декодеры
В 2,5 раза больше кадров!
В 2,5 раза плавнее! (59,94 fps)
Приятного просмотра. =)

Чужой

Чужой / Alien- Год выпуска: 1979
Жанр: Фантастика, Ужасы, Боевик
Производство: США, Великобритания
Описание фильма:
В далеком будущем возвращающийся на Землю грузовой космический корабль перехватывает исходящий с неизвестной планеты неопознанный сигнал. Экипаж принимает решение совершить посадку и разобраться, в чем дело. Оказавшись на планете, астронавты повсюду обнаруживают неопознанные предметы, по виду напоминающие гигантские коконы…
Режиссер: Ридли Скотт
Актеры: Сигурни Уивер, Том Скеррит, Иэн Холм, Джон Хёрт, Гарри Дин Стэнтон, Вероника Картрайт, Яфет Котто, Боладжи Бадеджо, Хелен Хортон, Эдди Пауэлл
Продолжительность: 01:56:38
Качество видео: BDRip
Перевод: Дублированный
Язык субтитров: Русский (полные), Английский (полные)
Вид субтитров: Вшитые, Отключаемые

Видеокодек: MPEG-4 AVC/H.264
Битрейт видео: ~6843 kb/s
Размер кадра: 1920*816
Аудио 1 Русский: AC3 5.1, 640 kb/s, Дубляж BD CEE
Аудио 2 Английский: AC3 5.1, 640 kb/s
Сэмпл: СсылкаСкриншоты

MI

Общее
Уникальный идентификатор : 224315098798837173472104103339508867122 (0xA8C1843E4A830E39B8FA2D28B2DBA032)
Полное имя : A:1080p 60fpsЧужой 1080p 60fpsЧужой 1 1080p 60fps.mkv
Формат : Matroska
Версия формата : Version 4 / Version 2
Размер файла : 6,75 Гбайт
Продолжительность : 1 ч. 56 м.
Общий поток : 8288 Кбит/сек
Дата кодирования : UTC 2014-07-25 15:17:38
Программа кодирования : mkvmerge v6.9.1 ('Blue Panther') 64bit built on Apr 18 2014 18:23:38
Библиотека кодирования : libebml v1.3.0 + libmatroska v1.4.1
Обложка : Yes
Видео
Идентификатор : 1
Формат : AVC
Формат/Информация : Advanced Video Codec
Профиль формата : High@L4.1
Параметр CABAC формата : Да
Параметр ReFrames формата : 4 кадра
Идентификатор кодека : V_MPEG4/ISO/AVC
Продолжительность : 1 ч. 56 м.
Битрейт : 6843 Кбит/сек
Ширина : 1920 пикселей
Высота : 816 пикселей
Соотношение сторон : 2,35:1
Режим частоты кадров : Постоянный
Частота кадров : 59,880 кадров/сек
Частота кадров в оригинале : 59,940 кадров/сек
Цветовое пространство : YUV
Субдискретизация насыщенности : 4:2:0
Битовая глубина : 8 бит
Тип развёртки : Прогрессивная
Бит/(Пиксели*Кадры) : 0.073
Размер потока : 5,57 Гбайт (83%)
Библиотека кодирования : x264 core 130 r2273 b3065e6
Настройки программы : cabac=1 / ref=4 / deblock=1:-1:-1 / analyse=0x3:0 / me=umh / subme=9 / psy=1 / psy_rd=1.00:0.10 / mixed_ref=1 / me_range=42 / chroma_me=0 / trellis=2 / 8x8dct=1 / cqm=0 / deadzone=21,11 / fast_pskip=0 / chroma_qp_offset=-3 / threads=12 / lookahead_threads=1 / sliced_threads=0 / nr=0 / decimate=0 / interlaced=0 / bluray_compat=0 / constrained_intra=0 / bframes=5 / b_pyramid=2 / b_adapt=2 / b_bias=0 / direct=1 / weightb=1 / open_gop=0 / weightp=2 / keyint=594 / keyint_min=59 / scenecut=40 / intra_refresh=0 / rc=crf / mbtree=0 / crf=18.0 / qcomp=0.60 / qpmin=0 / qpmax=69 / qpstep=4 / ip_ratio=1.40 / pb_ratio=1.30 / aq=0
Язык : English
Default : Да
Forced : Нет
Аудио #1
Идентификатор : 2
Формат : AC-3
Формат/Информация : Audio Coding 3
Расширение режима : CM (complete main)
Параметр Endianness формата : Big
Идентификатор кодека : A_AC3
Продолжительность : 1 ч. 56 м.
Вид битрейта : Постоянный
Битрейт : 640 Кбит/сек
Каналы : 6 каналов
Расположение каналов : Front: L C R, Side: L R, LFE
Частота : 48,0 КГц
Битовая глубина : 16 бит
Метод сжатия : С потерями
Размер потока : 534 Мбайт (8%)
Заголовок : Dub
Язык : Russian
Default : Да
Forced : Нет
Аудио #2
Идентификатор : 3
Формат : AC-3
Формат/Информация : Audio Coding 3
Расширение режима : CM (complete main)
Параметр Endianness формата : Big
Идентификатор кодека : A_AC3
Продолжительность : 1 ч. 56 м.
Вид битрейта : Постоянный
Битрейт : 640 Кбит/сек
Каналы : 6 каналов
Расположение каналов : Front: L C R, Side: L R, LFE
Частота : 48,0 КГц
Битовая глубина : 16 бит
Метод сжатия : С потерями
Размер потока : 534 Мбайт (8%)
Заголовок : Original
Язык : English
Default : Нет
Forced : Нет
Текст #1
Идентификатор : 4
Формат : UTF-8
Идентификатор кодека : S_TEXT/UTF8
Идентификатор кодека/Информация : UTF-8 Plain Text
Заголовок : Full
Язык : Russian
Default : Нет
Forced : Нет
Текст #2
Идентификатор : 5
Формат : UTF-8
Идентификатор кодека : S_TEXT/UTF8
Идентификатор кодека/Информация : UTF-8 Plain Text
Заголовок : Full
Язык : English
Default : Нет
Forced : Нет
Меню
00:00:00.000 : en:Main Titles
00:02:01.121 : en:Awakenings
00:09:17.223 : en:Nostromo Re-Routed
00:12:47.141 : en:Answering the Call
00:18:36.949 : en:Walking Distance
00:21:53.687 : en:Proceeding Blindly
00:23:53.974 : en:Dark Horizons
00:26:50.608 : en:A Word of Warning
00:31:06.781 : en:Kane's Descent
00:34:47.502 : en:Surface Tension
00:39:14.268 : en:Acid
00:42:06.899 : en:Standard Procedure
00:46:25.282 : en:The Missing Guest
00:50:55.468 : en:Long Journey Ahead
00:53:35.837 : en:The Last Supper
00:58:26.127 : en:On the Hunt
01:03:32.475 : en:"Here Jonesy"
01:08:07.499 : en:"What Are My Chances?"
01:11:01.173 : en:Into the Air Ducts
01:14:09.611 : en:The Third Junction
01:15:51.129 : en:"No Blood, No Dallas"
01:18:37.212 : en:Special Order
01:24:10.128 : en:"Crew Expendable"
01:28:24.006 : en:Escape Plan
01:30:54.323 : en:"Kitty, Kitty, Kitty"
01:32:53.484 : en:Cornered
01:34:44.511 : en:Auto-Destruct Initiated
01:36:28.615 : en:Override Failed
01:39:27.544 : en:Narcissus Escape
01:44:15.957 : en:Survivors
01:47:05.668 : en:"You Are My Lucky Star"
01:53:53.075 : en:End Credit

Чужие

Чужие / Aliens- Год выпуска: 1986
Жанр: Фантастика, Ужасы, Боевик
Производство: США, Великобритания
Описание фильма:
Чужой — совершенный организм. Идеальная машина для убийства, чье физическое превосходство сочетается с его феноменальной жаждой уничтожения. Офицер Элен Рипли и команда космического корабля Ностромо один раз уже встретилась с такой тварью. В живых осталась только Элен.
Капсула с Элен найдена спасателями после многих лет блуждания в космосе. Ей сообщают, что планета L.V. 426 колонизирована, и ей придется вернуться туда, где начался ее кошмар, ибо связь с колонистами прервалась. И вот в составе группы космического десанта Рипли отправляется на проклятую планету. Но теперь их там поджидает не один Чужой, а тысячи. Кто сможет выжить в этой войне: чудовища, способные только убивать, или люди, способные мыслить?
Режиссер: Джеймс Кэмерон
Актеры: Сигурни Уивер, Майкл Бин, Кэрри Хенн, Пол Райзер, Лэнс Хенриксен, Билл Пэкстон, Дженетт Голдстин, Уильям Хоуп, Эл Мэтьюз, Марк Ролстон
Продолжительность: 02:17:14
Качество видео: BDRip
Перевод: Дублированный
Язык субтитров: Русский (полные), Английский (полные)
Вид субтитров: Вшитые, Отключаемые

Видеокодек: MPEG-4 AVC/H.264
Битрейт видео: ~8996 kb/s
Размер кадра: 1920*1032
Аудио 1 Русский: AC3 5.1, 640 kb/s, Дубляж BD CEE
Аудио 2 Английский: AC3 5.1, 640 kb/s
Сэмпл: Ссылка

MI

Общее
Уникальный идентификатор : 227982014768061430490308752879473189875 (0xAB83BD28B46674A68B165108DB88E3F3)
Полное имя : A:1080p 60fpsЧужой 1080p 60fpsЧужой 2 1080p 60fps.mkv
Формат : Matroska
Версия формата : Version 4 / Version 2
Размер файла : 10,1 Гбайт
Продолжительность : 2 ч. 17 м.
Общий поток : 10,5 Мбит/сек
Дата кодирования : UTC 2014-07-25 15:21:37
Программа кодирования : mkvmerge v6.9.1 ('Blue Panther') 64bit built on Apr 18 2014 18:23:38
Библиотека кодирования : libebml v1.3.0 + libmatroska v1.4.1
Обложка : Yes
Видео
Идентификатор : 1
Формат : AVC
Формат/Информация : Advanced Video Codec
Профиль формата : High@L4.1
Параметр CABAC формата : Да
Параметр ReFrames формата : 4 кадра
Идентификатор кодека : V_MPEG4/ISO/AVC
Продолжительность : 2 ч. 17 м.
Битрейт : 8996 Кбит/сек
Ширина : 1920 пикселей
Высота : 1032 пикселя
Соотношение сторон : 1,85:1
Режим частоты кадров : Постоянный
Частота кадров : 59,880 кадров/сек
Частота кадров в оригинале : 59,940 кадров/сек
Цветовое пространство : YUV
Субдискретизация насыщенности : 4:2:0
Битовая глубина : 8 бит
Тип развёртки : Прогрессивная
Бит/(Пиксели*Кадры) : 0.076
Размер потока : 8,62 Гбайт (86%)
Библиотека кодирования : x264 core 130 r2273 b3065e6
Настройки программы : cabac=1 / ref=4 / deblock=1:-1:-1 / analyse=0x3:0 / me=umh / subme=9 / psy=1 / psy_rd=1.00:0.10 / mixed_ref=1 / me_range=42 / chroma_me=0 / trellis=2 / 8x8dct=1 / cqm=0 / deadzone=21,11 / fast_pskip=0 / chroma_qp_offset=-3 / threads=12 / lookahead_threads=1 / sliced_threads=0 / nr=0 / decimate=0 / interlaced=0 / bluray_compat=0 / constrained_intra=0 / bframes=5 / b_pyramid=2 / b_adapt=2 / b_bias=0 / direct=1 / weightb=1 / open_gop=0 / weightp=2 / keyint=594 / keyint_min=59 / scenecut=40 / intra_refresh=0 / rc=crf / mbtree=0 / crf=20.0 / qcomp=0.60 / qpmin=0 / qpmax=69 / qpstep=4 / ip_ratio=1.40 / pb_ratio=1.30 / aq=0
Язык : English
Default : Да
Forced : Нет
Аудио #1
Идентификатор : 2
Формат : AC-3
Формат/Информация : Audio Coding 3
Расширение режима : CM (complete main)
Параметр Endianness формата : Big
Идентификатор кодека : A_AC3
Продолжительность : 2 ч. 17 м.
Вид битрейта : Постоянный
Битрейт : 640 Кбит/сек
Каналы : 6 каналов
Расположение каналов : Front: L C R, Side: L R, LFE
Частота : 48,0 КГц
Битовая глубина : 16 бит
Метод сжатия : С потерями
Размер потока : 628 Мбайт (6%)
Заголовок : Dub
Язык : Russian
Default : Да
Forced : Нет
Аудио #2
Идентификатор : 3
Формат : AC-3
Формат/Информация : Audio Coding 3
Расширение режима : CM (complete main)
Параметр Endianness формата : Big
Идентификатор кодека : A_AC3
Продолжительность : 2 ч. 17 м.
Вид битрейта : Постоянный
Битрейт : 640 Кбит/сек
Каналы : 6 каналов
Расположение каналов : Front: L C R, Side: L R, LFE
Частота : 48,0 КГц
Битовая глубина : 16 бит
Метод сжатия : С потерями
Размер потока : 628 Мбайт (6%)
Заголовок : Original
Язык : English
Default : Нет
Forced : Нет
Текст #1
Идентификатор : 4
Формат : UTF-8
Идентификатор кодека : S_TEXT/UTF8
Идентификатор кодека/Информация : UTF-8 Plain Text
Заголовок : Full
Язык : Russian
Default : Нет
Forced : Нет
Текст #2
Идентификатор : 5
Формат : UTF-8
Идентификатор кодека : S_TEXT/UTF8
Идентификатор кодека/Информация : UTF-8 Plain Text
Заголовок : Full
Язык : English
Default : Нет
Forced : Нет
Меню
00:00:00.000 : en:Human Salvage (Main Titles)
00:05:15.732 : en:57 Years
00:08:52.406 : en:Inquest
00:12:33.377 : en:Home Alone
00:15:38.687 : en:Ripley's Decision
00:17:17.870 : en:Sulaco
00:23:07.010 : en:Briefing
00:28:16.653 : en:Express Elevator to Hell
00:35:08.648 : en:Arrival
00:42:33.384 : en:Lab Secimens
00:43:54.423 : en:Movement
00:52:01.284 : en:Rescue Mission
00:57:56.306 : en:Cocoons
01:00:37.300 : en:The Battle
01:04:08.177 : en:Ripley's Rescue
01:08:05.080 : en:Altercation
01:11:02.508 : en:Stranded
01:14:01.270 : en:Barricade
01:17:54.294 : en:A Mother's Love
01:20:47.717 : en:Speculation
01:23:21.579 : en:Bad News
01:28:35.643 : en:Dreamland
01:30:22.291 : en:Not a Dream
01:36:05.134 : en:"Game Time"
01:45:17.102 : en:Little Girl Lost
01:49:00.784 : en:Ripley's Promise
01:51:50.662 : en:Reluctant Solider
01:55:48.524 : en:The Nest
02:04:15.656 : en:It's Over
02:06:03.806 : en:Final Confrontation
02:13:03.099 : en:Dreams
02:14:23.471 : en:End Titles

Чужой 3

Чужой 3 / Alien³- Год выпуска: 1992
Жанр: Фантастика, Ужасы, Боевик
Производство: США
Описание фильма:
После бегства с планеты «Чужих» космический корабль Рипли терпит катастрофу вблизи так называемой планеты — тюрьмы, места, где отсиживают свой срок убийцы, насильники и прочие отбросы общества. Вместе с Рипли на эту планету попадает зародыш чужого, который и был причиной гибели корабля. Довольно быстро он превращается в гигантскую, зубастую тварь и начинает свое темное дело.
Его жертвами становятся десятки безоружных заключенных. Кровь брызжет фонтаном, куски человеческого мяса разлетаются во все стороны. И кажется, что остановить эту машину смерти не сможет никто, никто кроме отважной, но увы не бессмертной девушки по имени Рипли.
Режиссер: Дэвид Финчер
Актеры: Сигурни Уивер, Чарльз С. Даттон, Чарльз Дэнс, Пол МакГанн, Брайан Гловер, Ральф Браун, Дэниэл Уэбб, Кристофер Джон Филдс, Холт МакКэллани, Лэнс Хенриксен
Продолжительность: 01:54:52
Качество видео: BDRip
Перевод: Дублированный
Язык субтитров: Русский (полные), Английский (полные)
Вид субтитров: Вшитые, Отключаемые

Видеокодек: MPEG-4 AVC/H.264
Битрейт видео: ~7805 kb/s
Размер кадра: 1920*808
Аудио 1 Русский: AC3 5.1, 640 kb/s, Дубляж BD CEE
Аудио 2 Английский: AC3 5.1, 640 kb/s
Сэмпл: Ссылка

MI

Общее
Уникальный идентификатор : 232747462649787725744387119803387400713 (0xAF1987E12E4E573B92B2B1428F2CD209)
Полное имя : A:1080p 60fpsЧужой 1080p 60fpsЧужой 3 1080p 60fps.mkv
Формат : Matroska
Версия формата : Version 4 / Version 2
Размер файла : 7,44 Гбайт
Продолжительность : 1 ч. 54 м.
Общий поток : 9270 Кбит/сек
Дата кодирования : UTC 2014-07-25 15:25:13
Программа кодирования : mkvmerge v6.9.1 ('Blue Panther') 64bit built on Apr 18 2014 18:23:38
Библиотека кодирования : libebml v1.3.0 + libmatroska v1.4.1
Обложка : Yes
Видео
Идентификатор : 1
Формат : AVC
Формат/Информация : Advanced Video Codec
Профиль формата : High@L4.1
Параметр CABAC формата : Да
Параметр ReFrames формата : 4 кадра
Идентификатор кодека : V_MPEG4/ISO/AVC
Продолжительность : 1 ч. 54 м.
Битрейт : 7805 Кбит/сек
Ширина : 1920 пикселей
Высота : 808 пикселей
Соотношение сторон : 2,40:1
Режим частоты кадров : Постоянный
Частота кадров : 59,880 кадров/сек
Частота кадров в оригинале : 59,940 кадров/сек
Цветовое пространство : YUV
Субдискретизация насыщенности : 4:2:0
Битовая глубина : 8 бит
Тип развёртки : Прогрессивная
Бит/(Пиксели*Кадры) : 0.084
Размер потока : 6,26 Гбайт (84%)
Библиотека кодирования : x264 core 130 r2273 b3065e6
Настройки программы : cabac=1 / ref=4 / deblock=1:-1:-1 / analyse=0x3:0 / me=umh / subme=9 / psy=1 / psy_rd=1.00:0.10 / mixed_ref=1 / me_range=42 / chroma_me=0 / trellis=2 / 8x8dct=1 / cqm=0 / deadzone=21,11 / fast_pskip=0 / chroma_qp_offset=-3 / threads=12 / lookahead_threads=1 / sliced_threads=0 / nr=0 / decimate=0 / interlaced=0 / bluray_compat=0 / constrained_intra=0 / bframes=5 / b_pyramid=2 / b_adapt=2 / b_bias=0 / direct=1 / weightb=1 / open_gop=0 / weightp=2 / keyint=594 / keyint_min=59 / scenecut=40 / intra_refresh=0 / rc=crf / mbtree=0 / crf=16.0 / qcomp=0.60 / qpmin=0 / qpmax=69 / qpstep=4 / ip_ratio=1.40 / pb_ratio=1.30 / aq=0
Язык : English
Default : Да
Forced : Нет
Аудио #1
Идентификатор : 2
Формат : AC-3
Формат/Информация : Audio Coding 3
Расширение режима : CM (complete main)
Параметр Endianness формата : Big
Идентификатор кодека : A_AC3
Продолжительность : 1 ч. 54 м.
Вид битрейта : Постоянный
Битрейт : 640 Кбит/сек
Каналы : 6 каналов
Расположение каналов : Front: L C R, Side: L R, LFE
Частота : 48,0 КГц
Битовая глубина : 16 бит
Метод сжатия : С потерями
Размер потока : 526 Мбайт (7%)
Заголовок : Dub
Язык : Russian
Default : Да
Forced : Нет
Аудио #2
Идентификатор : 3
Формат : AC-3
Формат/Информация : Audio Coding 3
Расширение режима : CM (complete main)
Параметр Endianness формата : Big
Идентификатор кодека : A_AC3
Продолжительность : 1 ч. 54 м.
Вид битрейта : Постоянный
Битрейт : 640 Кбит/сек
Каналы : 6 каналов
Расположение каналов : Front: L C R, Side: L R, LFE
Частота : 48,0 КГц
Битовая глубина : 16 бит
Метод сжатия : С потерями
Размер потока : 526 Мбайт (7%)
Заголовок : Original
Язык : English
Default : Нет
Forced : Нет
Текст #1
Идентификатор : 4
Формат : UTF-8
Идентификатор кодека : S_TEXT/UTF8
Идентификатор кодека/Информация : UTF-8 Plain Text
Заголовок : Full
Язык : Russian
Default : Нет
Forced : Нет
Текст #2
Идентификатор : 5
Формат : UTF-8
Идентификатор кодека : S_TEXT/UTF8
Идентификатор кодека/Информация : UTF-8 Plain Text
Заголовок : Full
Язык : English
Default : Нет
Forced : Нет
Меню
00:00:00.000 : en:Main Titles
00:03:42.972 : en:Crash Landing
00:04:45.994 : en:One Survivor?
00:07:34.745 : en:The Facts
00:09:33.948 : en:The Sleeper Awakens
00:11:48.290 : en:Inspecting the Ship
00:14:43.632 : en:A Possible Contagion
00:21:52.310 : en:A New Beginning
00:26:22.789 : en:New Temptation
00:30:19.984 : en:Diced
00:35:41.639 : en:The Flight Recorder
00:37:40.800 : en:High Priority
00:39:02.298 : en:A Re-Education
00:41:33.824 : en:A Candlelight Dinner
00:45:12.459 : en:Bishop Speaks
00:48:13.348 : en:Discussing the Dragon
00:51:31.504 : en:A Long Sad Story
00:55:57.520 : en:"It's Here"
00:58:25.501 : en:Who's in Charge?
01:01:04.202 : en:The Plan
01:05:00.479 : en:Wait for the Signal
01:09:35.754 : en:Under the Scanner
01:12:41.690 : en:A Classified Code
01:15:43.622 : en:In the Basement
01:19:03.613 : en:It Has to Die
01:22:14.721 : en:Plan B
01:27:15.104 : en:It Started
01:35:59.586 : en:Ripley & The Beast
01:38:42.416 : en:In the Mold
01:41:23.410 : en:Time for a Cold Shower
01:43:16.148 : en:Never Trust a Bishop
01:49:09.751 : en:End Titles

Чужой 4: Воскрешение

Чужой 4: Воскрешение / Alien: Resurrection- Год выпуска: 1992
Жанр: Фантастика, Ужасы, Боевик
Производство: США
Описание фильма:
Спустя двести лет после событий, произошедших на планете-тюрьме, группа ученых, опекаемых военным командованием, клонирует Эллен Рипли, чтобы с ее помощью заполучить детеныша инопланетного монстра. Вскоре он уже сам начинает плодиться, производя на свет новую породу — помесь кровожадного пришельца и… человека.
Режиссер: Жан-Пьер Жёне
Актеры: Сигурни Уивер, Вайнона Райдер, Доминик Пинон, Рон Перлман, Гари Дурдан, Майкл Уинкотт, Дж.Э. Фримен, Лиленд Орсер, Брэд Дуриф, Дэн Хедайя
Продолжительность: 01:48:48
Качество видео: BDRip
Перевод: Дублированный
Язык субтитров: Русский (полные), Английский (полные)
Вид субтитров: Вшитые, Отключаемые

Видеокодек: MPEG-4 AVC/H.264
Битрейт видео: ~7560 kb/s
Размер кадра: 1920*816
Аудио 1 Русский: AC3 5.1, 640 kb/s, Дубляж BD CEE
Аудио 2 Английский: AC3 5.1, 640 kb/s
Сэмпл: Ссылка

MI

Общее
Уникальный идентификатор : 239764929899979896523280128475737224227 (0xB4610BBA42271C7DA3DD446B2415F423)
Полное имя : A:1080p 60fpsЧужой 1080p 60fpsЧужой 4 1080p 60fps.mkv
Формат : Matroska
Версия формата : Version 4 / Version 2
Размер файла : 6,86 Гбайт
Продолжительность : 1 ч. 48 м.
Общий поток : 9020 Кбит/сек
Дата кодирования : UTC 2014-07-25 15:30:23
Программа кодирования : mkvmerge v6.9.1 ('Blue Panther') 64bit built on Apr 18 2014 18:23:38
Библиотека кодирования : libebml v1.3.0 + libmatroska v1.4.1
Обложка : Yes
Видео
Идентификатор : 1
Формат : AVC
Формат/Информация : Advanced Video Codec
Профиль формата : High@L4.1
Параметр CABAC формата : Да
Параметр ReFrames формата : 4 кадра
Идентификатор кодека : V_MPEG4/ISO/AVC
Продолжительность : 1 ч. 48 м.
Битрейт : 7560 Кбит/сек
Ширина : 1920 пикселей
Высота : 816 пикселей
Соотношение сторон : 2,35:1
Режим частоты кадров : Постоянный
Частота кадров : 59,880 кадров/сек
Частота кадров в оригинале : 59,940 кадров/сек
Цветовое пространство : YUV
Субдискретизация насыщенности : 4:2:0
Битовая глубина : 8 бит
Тип развёртки : Прогрессивная
Бит/(Пиксели*Кадры) : 0.081
Размер потока : 5,75 Гбайт (84%)
Библиотека кодирования : x264 core 130 r2273 b3065e6
Настройки программы : cabac=1 / ref=4 / deblock=1:-1:-1 / analyse=0x3:0 / me=umh / subme=9 / psy=1 / psy_rd=1.00:0.10 / mixed_ref=1 / me_range=42 / chroma_me=0 / trellis=2 / 8x8dct=1 / cqm=0 / deadzone=21,11 / fast_pskip=0 / chroma_qp_offset=-3 / threads=12 / lookahead_threads=1 / sliced_threads=0 / nr=0 / decimate=0 / interlaced=0 / bluray_compat=0 / constrained_intra=0 / bframes=5 / b_pyramid=2 / b_adapt=2 / b_bias=0 / direct=1 / weightb=1 / open_gop=0 / weightp=2 / keyint=594 / keyint_min=59 / scenecut=40 / intra_refresh=0 / rc=crf / mbtree=0 / crf=18.0 / qcomp=0.60 / qpmin=0 / qpmax=69 / qpstep=4 / ip_ratio=1.40 / pb_ratio=1.30 / aq=0
Язык : English
Default : Да
Forced : Нет
Аудио #1
Идентификатор : 2
Формат : AC-3
Формат/Информация : Audio Coding 3
Расширение режима : CM (complete main)
Параметр Endianness формата : Big
Идентификатор кодека : A_AC3
Продолжительность : 1 ч. 48 м.
Вид битрейта : Постоянный
Битрейт : 640 Кбит/сек
Каналы : 6 каналов
Расположение каналов : Front: L C R, Side: L R, LFE
Частота : 48,0 КГц
Битовая глубина : 16 бит
Метод сжатия : С потерями
Размер потока : 498 Мбайт (7%)
Заголовок : Dub
Язык : Russian
Default : Да
Forced : Нет
Аудио #2
Идентификатор : 3
Формат : AC-3
Формат/Информация : Audio Coding 3
Расширение режима : CM (complete main)
Параметр Endianness формата : Big
Идентификатор кодека : A_AC3
Продолжительность : 1 ч. 48 м.
Вид битрейта : Постоянный
Битрейт : 640 Кбит/сек
Каналы : 6 каналов
Расположение каналов : Front: L C R, Side: L R, LFE
Частота : 48,0 КГц
Битовая глубина : 16 бит
Метод сжатия : С потерями
Размер потока : 498 Мбайт (7%)
Заголовок : Original
Язык : English
Default : Нет
Forced : Нет
Текст #1
Идентификатор : 4
Формат : UTF-8
Идентификатор кодека : S_TEXT/UTF8
Идентификатор кодека/Информация : UTF-8 Plain Text
Заголовок : Full
Язык : Russian
Default : Нет
Forced : Нет
Текст #2
Идентификатор : 5
Формат : UTF-8
Идентификатор кодека : S_TEXT/UTF8
Идентификатор кодека/Информация : UTF-8 Plain Text
Заголовок : Full
Язык : English
Default : Нет
Forced : Нет
Меню
00:00:00.000 : en:Main Titles
00:02:27.313 : en:USM Auriga
00:05:16.983 : en:Born Again
00:07:36.122 : en:An Unexpected Benefit
00:10:26.250 : en:Memories
00:13:08.078 : en:The Cargo Arrives
00:18:06.168 : en:The Deal
00:21:49.474 : en:A Little One-on-One
00:25:38.244 : en:Today's Lesson
00:28:38.591 : en:Snooping Around
00:32:46.172 : en:Caught
00:34:56.219 : en:The Escape
00:38:06.158 : en:"Evacuation"
00:42:00.142 : en:"Evacuation Incomplete"
00:49:04.858 : en:Finding a Way Out
00:52:34.442 : en:A Waste of Ammo
00:58:31.132 : en:"He's Got One Inside of Him"
01:02:46.095 : en:A Trap
01:13:56.056 : en:Call's Secret
01:16:26.206 : en:Connecting at the Chapel
01:21:15.829 : en:Into the Nest
01:24:40.575 : en:Sharing the Monster
01:27:09.932 : en:A New Baby
01:31:52.798 : en:Racing to the Betty
01:33:39.947 : en:Closing the Hatch
01:36:44.256 : en:Under Pressure
01:40:46.707 : en:"I'm a Stranger Here Myself"
01:42:27.975 : en:End Titles
--
[Профиль] [ЛС]
Показать сообщения:    

Текущее время: Сегодня 08:18

Часовой пояс: GMT



Вы не можете начинать темы
Вы не можете отвечать на сообщения
Вы не можете редактировать свои сообщения
Вы не можете удалять свои сообщения
Вы не можете голосовать в опросах
Вы не можете прикреплять файлы к сообщениям
Вы не можете скачивать файлы