Чужой район [01-03x01-88 из 88 + бонус] (2011-2014) SATRip

 
Автор Сообщение

достали все ®

Пол:

Стаж: 1 год 8 месяцев

Сообщений: 6554



Награды: 12 (Подробнее)

Mega Releaser 3 (Количество: 1) Top Releaser 2 (Количество: 1) За внесенный вклад в развитие сайта (Количество: 1)
Торрент-статистика

Создавать темы 28-Апр-2016 06:07

[Цитировать]

-Страна: Россия / Триикс Медиа
Жанр: детектив, криминал
Год выпуска: 2011-2014
Продолжительность: 00:45:00 / серия
Перевод: Не требуется
Cубтитры: нет
Оригинальная аудиодорожка: русский
Режиссер: Андрей Коршунов, Максим Бриус, Игорь Драка, Дмитрий Аверин, Богдан Дробязко
В ролях: Денис Рожков, Кирилл Полухин, Анна Лутцева, Вячеслав Аркунов, Сергей Колос, Зоя Буряк, Евгений Леонов-Гладышев, Екатерина Проскурина, Игорь Головин, Даниил Кокин, Алексей Нилов, Игорь Вуколов, Юрий Кузнецов, Юрий Архангельский, Вячеслав Аркунов, Алексей Одинг...
Описание: Сотрудник уголовного розыска Андрей Фролов разоблачил и обезвредил очередного преступника. На беду, тот оказывается внуком очень влиятельного человека. За это из боевых оперативников Андрея понизили до обычного участкового и доверили ему самый сложный в криминальном плане и очень нехороший район — окраину мегаполиса, бывший рабочий поселок со своими типичными «прелестями». Здесь царят свои суровые порядки, и каждый сам себе защитник. Жизнь района контролируют местный авторитет по кличке Сыч и его подельник Артур. Они и есть закон...
-Качество: SATRip / DVB от kostik184, Files-X
Формат: AVI
Видео 1: 720x384 (1.85:1), 25.000 fps, XviD ~ 1800 kbps avg, 0.260 bit/pixel (первый сезон, второй сезон 1-13 серии)
Видео 2: 688x384 (16:9), 25.000 fps, XviD ~ 1800 kbps avg, 0.273 bit/pixel (второй сезон 14-32 серии)
Видео 3: 608x336 (16:9), 25.000 fps, XviD ~ 1800 kbps avg, 0.352 bit/pixel (третий сезон)
Аудио: 48 kHz, Dolby AC3, 2 ch, 192 kbps
Дополнительно: От сезона к сезону этого сериала DVB, из которых делается SATRip, всё ухудшаются и ухудшаются. Границы ухудшения проходят между 13 и 14 сериями второго сезона и между вторым и третьим сезонами. Все релизеры, выставляющие этот сериал до меня в сети, этого ухудшения "не заметили" и продолжали выдавать картинку 720х400, хотя такой картинки попросту нет во всём сериале. Апскейл по моим подсчётам во всех раздачах конкурентов составляет 4 пикселя по первому сезону и первой половине второго сезона, 22 пикселя по второй половине второго сезона и 108!!! пикселей по третьему сезону. Поэтому я и взялся прокодировать 88 серий этого сериала плюс Фильм о фильме как учили, а не растягивать картинку, как некоторые. Есть и DVD первого сезона этого сериала и я бы сделал конечно DVDRip, однако впихивать по 12 сорокапятиминутных серий в один диск могут только дебилы, качество там значительно ниже DVB.
Раздача от:

Описание сезонов сериала

Чужой район 1: Сотрудник уголовного розыска Андрей Фролов — белая ворона. Ему не нравятся методы работы коллег, он не желает участвовать в допросах, которые ведутся с применением насилия и давления. После того как Андрей обезвредил преступника, который оказался внуком влиятельного лица, ему ставят ультиматум: он должен уйти из розыска по собственному желанию, или…
Андрей переводится в участковые, и по чьей-то «злой воле», ему доверяют самый сложный в криминальном плане, отдаленный район под названием «Молот» (Красный молот). Это микрорайон на окраине Мегаполиса, бывший рабочий поселок имени Красных Молотобойцев. До ближайшего метро — 15 минут маршруткой, которая ходит «раз в год по обещанию»…
Микрорайон с типичными прелестями спально-рабочих районов. Чем-то смахивает на Дикий Запад — здесь свои законы, каждый сам себе защитник. По сути, районом управляет Авторитет (здесь закон — это он). Жизнь в районе сурова, но в большинстве своём, его жители, несмотря на непритязательность и простоту, оказываются правильными и настоящими.
Чужой район 2: Приказ о переводе Фролова обратно опером в Центральный район уже практически подписан, и вот и зашёл Андрей прогуляться «на районе» да попрощаться с друзьями-товарищами, так и не смог вернуться. Точнее, вернуться-то удалось, а вот быть в нужном для службы состоянии — нет. И как назло комиссия из Москвы с проверкой пожаловала. Поэтому Фролов в центральном районе работать пока не будет, а вернется в Молот до лучших времен. Так Фролов снова оказался в «Чужом районе». Этому очень обрадовался начальник отделения Статюк. Этому не обрадовались Артур и Макаров. И весьма удивился Свистунов.
Чужой район 3: Следователи поспешили закрыть дело о покушении на участкового района Красный Молот капитана полиции Андрея Фролова, в результате которого был тяжело ранен его отец. Фролов подозревает, что организовал покушение его давний враг, бывший полицейский-оборотень Толя Дубинин. Но подозрения, как известно, к делу не пришьешь…
Между тем Фролов вновь готовится к переводу в уголовный розыск Центрального района, откуда он и был в свое время сослан на окраину Санкт-Петербурга, невольно перейдя дорогу влиятельному полицейскому генералу.
Но очередное столкновение с Дубининым и козни находящегося в розыске главы районной администрации Александра Петрова вновь перечеркивают планы Андрея…

Внимание! Раздача ведётся путём добавления новых серий

Внимание! Раздача ведётся путём добавления новых серий
При каждом добавлении создаётся новый торрент. Чтобы начать докачку новой серии, пользователям необходимо сделать следующее:
1) остановить скачивание,
2) удалить старый торрент у себя из клиента (старые серии удалять не надо),
3) скачать новый торрент и запустить его у себя в клиенте вместо старого, при этом указать клиенту путь в старую папку куда и должно происходить скачивание новых серий.
Ваш клиент при этом должен произвести хеширование (проверку) старой папки (если не производит сам - помогите ему сделать это), и будет докачивать только те серии которых у вас ещё нет. Старые серии при этом не удаляются, а продолжают раздаваться!
Eсли вы уже удалили старые серии, то предотвратить повторную закачку старых серий можно, отжав галочку в соответствующих местах при запуске нового торрента.

MediaInfo 1 сезон, 2 сезон 1-13

General
Format : AVI
Format/Info : Audio Video Interleave
File size : 640 MiB
Duration : 44mn 42s
Overall bit rate : 2 002 Kbps
Writing application : VirtualDubMod 1.5.10.3 | www.virtualdub-fr.org || (build 2550/release)
Writing library : VirtualDubMod build 2550/release
Video
ID : 0
Format : MPEG-4 Visual
Format profile : Advanced Simple@L5
Format settings, BVOP : 1
Format settings, QPel : No
Format settings, GMC : No warppoints
Format settings, Matrix : Custom
Codec ID : XVID
Codec ID/Hint : XviD
Duration : 44mn 42s
Bit rate : 1 800 Kbps
Width : 720 pixels
Height : 384 pixels
Display aspect ratio : 1.85:1
Frame rate : 25.000 fps
Color space : YUV
Chroma subsampling : 4:2:0
Bit depth : 8 bits
Scan type : Progressive
Compression mode : Lossy
Bits/(Pixel*Frame) : 0.260
Stream size : 576 MiB (90%)
Writing library : XviD 73
Audio
ID : 1
Format : AC-3
Format/Info : Audio Coding 3
Mode extension : CM (complete main)
Format settings, Endianness : Big
Codec ID : 2000
Duration : 44mn 42s
Bit rate mode : Constant
Bit rate : 192 Kbps
Channel(s) : 2 channels
Channel positions : Front: L R
Sampling rate : 48.0 KHz
Frame rate : 31.250 fps (1536 spf)
Compression mode : Lossy
Stream size : 61.4 MiB (10%)
Alignment : Split accross interleaves
Interleave, duration : 40 ms (1.00 video frame)
Interleave, preload duratio : 500 ms

MediaInfo 2 сезон 14-32

General
Format : AVI
Format/Info : Audio Video Interleave
File size : 638 MiB
Duration : 44mn 32s
Overall bit rate : 2 002 Kbps
Writing application : VirtualDubMod 1.5.10.3 | www.virtualdub-fr.org || (build 2550/release)
Writing library : VirtualDubMod build 2550/release
Video
ID : 0
Format : MPEG-4 Visual
Format profile : Advanced Simple@L5
Format settings, BVOP : 1
Format settings, QPel : No
Format settings, GMC : No warppoints
Format settings, Matrix : Custom
Codec ID : XVID
Codec ID/Hint : XviD
Duration : 44mn 32s
Bit rate : 1 800 Kbps
Width : 688 pixels
Height : 384 pixels
Display aspect ratio : 16:9
Frame rate : 25.000 fps
Color space : YUV
Chroma subsampling : 4:2:0
Bit depth : 8 bits
Scan type : Progressive
Compression mode : Lossy
Bits/(Pixel*Frame) : 0.273
Stream size : 573 MiB (90%)
Writing library : XviD 73
Audio
ID : 1
Format : AC-3
Format/Info : Audio Coding 3
Mode extension : CM (complete main)
Format settings, Endianness : Big
Codec ID : 2000
Duration : 44mn 32s
Bit rate mode : Constant
Bit rate : 192 Kbps
Channel(s) : 2 channels
Channel positions : Front: L R
Sampling rate : 48.0 KHz
Frame rate : 31.250 fps (1536 spf)
Compression mode : Lossy
Stream size : 61.2 MiB (10%)
Alignment : Split accross interleaves
Interleave, duration : 40 ms (1.00 video frame)
Interleave, preload duratio : 500 ms

MediaInfo 3 сезон

General
Format : AVI
Format/Info : Audio Video Interleave
File size : 630 MiB
Duration : 43mn 58s
Overall bit rate : 2 002 Kbps
Writing application : VirtualDubMod 1.5.10.3 | www.virtualdub-fr.org || (build 2550/release)
Writing library : VirtualDubMod build 2550/release
Video
ID : 0
Format : MPEG-4 Visual
Format profile : Advanced Simple@L5
Format settings, BVOP : 1
Format settings, QPel : No
Format settings, GMC : No warppoints
Format settings, Matrix : Custom
Codec ID : XVID
Codec ID/Hint : XviD
Duration : 43mn 58s
Bit rate : 1 800 Kbps
Width : 608 pixels
Height : 336 pixels
Display aspect ratio : 16:9
Frame rate : 25.000 fps
Color space : YUV
Chroma subsampling : 4:2:0
Bit depth : 8 bits
Scan type : Progressive
Compression mode : Lossy
Bits/(Pixel*Frame) : 0.352
Stream size : 566 MiB (90%)
Writing library : XviD 73
Audio
ID : 1
Format : AC-3
Format/Info : Audio Coding 3
Mode extension : CM (complete main)
Format settings, Endianness : Big
Codec ID : 2000
Duration : 43mn 58s
Bit rate mode : Constant
Bit rate : 192 Kbps
Channel(s) : 2 channels
Channel positions : Front: L R
Sampling rate : 48.0 KHz
Frame rate : 31.250 fps (1536 spf)
Compression mode : Lossy
Stream size : 60.4 MiB (10%)
Alignment : Split accross interleaves
Interleave, duration : 40 ms (1.00 video frame)
Interleave, preload duratio : 500 ms

Скриншоты:

[Профиль] [ЛС]
Показать сообщения:    

Текущее время: Сегодня 12:51

Часовой пояс: GMT



Вы не можете начинать темы
Вы не можете отвечать на сообщения
Вы не можете редактировать свои сообщения
Вы не можете удалять свои сообщения
Вы не можете голосовать в опросах
Вы не можете прикреплять файлы к сообщениям
Вы не можете скачивать файлы