Чужой против Хищника / AVP: Alien vs. Predator (2004) HDTVRip от Шкипер | D | Therical Cut | Open Matte

 
Автор Сообщение

Шкипер ®

Пол:

Стаж: 1 год 7 месяцев

Сообщений: 51



Награды: Нет

Торрент-статистика

Создавать темы 10-Июл-2016 14:47

[Цитировать]

Информация о фильме
Название: Чужой против Хищника
Оригинальное название: AVP: Alien vs. Predator [Therical Cut, Open Matte]
Год выхода: 2004
Жанр: Боевик, фантастика, фильм ужасов, приключенческий фильм, триллер
Режиссер: Пол У. С. Андерсон / Paul W.S. Anderson
В ролях: Санаа Лэтэн, Рауль Бова, Лэнс Хенриксен, Юэн Бремнер, Колин Сэлмон, Томми Флэнаган, Джозеф Рай, Агат Де Ла Булае, Карстен Норгаард, Сэм Тротон
О фильме: Наши дни. Группа ученых отправляется в Антарктиду, чтобы отыскать колыбель цивилизации, царившей на Земле многие тысячелетия назад. Под толщей льда они находят пирамиды, в которых обнаруживают человеческие скелеты и следы жизнедеятельности чужих.
Однако они еще не знают, что уже находятся под колпаком у хозяев этого города — хищников, и их дни сочтены. Человеческая приманка поможет хищникам, наконец, завершить войну двух космических цивилизаций…

Страна: Германия, США, Чехия, Великобритания
Продолжительность: 01:40:42
Перевод: Профессиональный (полное дублирование)
Файл
Кодек: XviD
Качество: HDTVRip (источник HDTVRip 720p)
Видео: 720x400 (1.80:1), 23.976 fps, XviD build 73 ~1557 kbps avg, 0.23 bit/pixel
Звук: 48 kHz, AC3 Dolby Digital, 2/0 (L,R) ch, ~192 kbps
Звук#2: 48 kHz, AC3 Dolby Digital, 2/0 (L,R) ch, ~192 kbps - (ENG)
Субтитры: Отсутствуют
Семпл

MI

General
Complete name : D:Изготовление рипа1 Alien vs Predator HDTVRip by shkiper.avi
Format : AVI
Format/Info : Audio Video Interleave
File size : 1.38 GiB
Duration : 1h 40mn
Overall bit rate : 1 956 Kbps
Writing application : VirtualDubMod 1.5.10.2 (build 2540/release)
Writing library : VirtualDubMod build 2540/release
Video
ID : 0
Format : MPEG-4 Visual
Format profile : Advanced Simple@L5
Format settings, BVOP : 1
Format settings, QPel : No
Format settings, GMC : No warppoints
Format settings, Matrix : Custom
Codec ID : XVID
Codec ID/Hint : XviD
Duration : 1h 40mn
Bit rate : 1 558 Kbps
Width : 720 pixels
Height : 400 pixels
Display aspect ratio : 16:9
Frame rate : 23.976 (23976/1000) fps
Color space : YUV
Chroma subsampling : 4:2:0
Bit depth : 8 bits
Scan type : Progressive
Compression mode : Lossy
Bits/(Pixel*Frame) : 0.226
Stream size : 1.10 GiB (80%)
Writing library : XviD 73
Audio #1
ID : 1
Format : AC-3
Format/Info : Audio Coding 3
Mode extension : CM (complete main)
Format settings, Endianness : Big
Codec ID : 2000
Duration : 1h 40mn
Bit rate mode : Constant
Bit rate : 192 Kbps
Channel(s) : 2 channels
Channel positions : Front: L R
Sampling rate : 48.0 KHz
Frame rate : 31.250 fps (1536 spf)
Compression mode : Lossy
Stream size : 138 MiB (10%)
Alignment : Split accross interleaves
Interleave, duration : 42 ms (1.00 video frame)
Interleave, preload duratio : 500 ms
Audio #2
ID : 2
Format : AC-3
Format/Info : Audio Coding 3
Mode extension : CM (complete main)
Format settings, Endianness : Big
Codec ID : 2000
Duration : 1h 40mn
Bit rate mode : Constant
Bit rate : 192 Kbps
Channel(s) : 2 channels
Channel positions : Front: L R
Sampling rate : 48.0 KHz
Frame rate : 31.250 fps (1536 spf)
Compression mode : Lossy
Stream size : 138 MiB (10%)
Alignment : Split accross interleaves
Interleave, duration : 42 ms (1.00 video frame)
Interleave, preload duratio : 500 ms

Скриншоты

Релиз от:
[Профиль] [ЛС]
Показать сообщения:    

Текущее время: Сегодня 11:57

Часовой пояс: GMT



Вы не можете начинать темы
Вы не можете отвечать на сообщения
Вы не можете редактировать свои сообщения
Вы не можете удалять свои сообщения
Вы не можете голосовать в опросах
Вы не можете прикреплять файлы к сообщениям
Вы не можете скачивать файлы