Чужой: Завет / Alien: Covenant (2017) BDRip 720p | 60 fps | Лицензия

 
Автор Сообщение

Swager ®

Пол:

Стаж: 2 года

Сообщений: 981



Награды: 3 (Подробнее)

Top Releaser 2 (Количество: 1) Mega Seeder 1 (Количество: 1) Mega Seeder 2 (Количество: 1)
Торрент-статистика

Создавать темы 07-Окт-2017 10:16

[Цитировать]

Информация о фильме
Русское название: Чужой: Завет
Оригинальное название: Alien: Covenant
Год выхода: 2017
Жанр: ужасы, фантастика, триллер
Режиссер: Ридли Скотт
Выпущено: США, Австралия, Новая Зеландия, Великобритания
Продолжительность: 02:02:03
Перевод: Дублированный
В ролях: Майкл Фассбендер, Кэтрин Уотерстон, Билли Крадап, Дэнни МакБрайд, Демиан Бишир, Кармен Эджого, Джусси Смоллетт, Калли Эрнандес, Эми Саймец, Натаниель Дин, Александр Инглэнд, Бенжамин Ригби, Ули Латукефу, Тесс Хобрич, Лорелей Кинг, Горан Д’Клюе-Сюжет фильма
Во время обследования удаленной планеты, расположенной на другой стороне галактики, экипаж колониального корабля «Завет» обнаруживает, что то, что они изначально приняли за неизведанный рай, на самом деле — тёмный и опасный мир. Его единственный житель — синтетический андроид Дэвид, оставшийся в живых после обреченной экспедиционной миссии «Прометей».-Файл
Качество: BDRip 720p (исходник Blu-ray Disc)
Контейнер: MKV (расширение файла)
Видео: 1280x534, 4278 Кбит/сек, 60.000 кадр/сек, AVC, x264, High@L4.1, 2.40:1, 0.104 Бит/[Пиксели*Кадры]
Аудио 1: AC-3, 448 Кбит/сек, 6 канала(ов), 48,0 КГц - Дублированный / Русский
Аудио 2: AC-3, 448 Кбит/сек, 6 канала(ов), 48,0 КГц - Оригинал / Английский
Субтитры: Русские | Полные, Английские | Полные
Форсированные субтитры: Русские
Чаптеры (Главы): Есть- -

Скриншоты

MediaInfo

Format : Matroska
Format version : Version 2
File size : 4.50 GiB
Duration : 2 h 2 min
Overall bit rate : 5 279 kb/s
Movie name : Alien: Covenant.(2017).BDRip.720p.[envy].[60fps]
Encoded date : UTC 2017-10-05 07:11:47
Writing application : mkvmerge v5.8.0 ('No Sleep / Pillow') built on Sep 2 2012 15:37:04
Writing library : libebml v1.2.3 + libmatroska v1.3.0
Video
ID : 1
Format : AVC
Format/Info : Advanced Video Codec
Format profile : High@L4.1
Format settings, CABAC : Yes
Format settings, RefFrames : 9 frames
Codec ID : V_MPEG4/ISO/AVC
Duration : 2 h 2 min
Bit rate : 4 278 kb/s
Width : 1 280 pixels
Height : 534 pixels
Display aspect ratio : 2.40:1
Frame rate mode : Constant
Frame rate : 60.000 FPS
Color space : YUV
Chroma subsampling : 4:2:0
Bit depth : 8 bits
Scan type : Progressive
Bits/(Pixel*Frame) : 0.104
Stream size : 3.65 GiB (81%)
Title : Alien: Covenant.(2017).BDRip.720p.[envy].[60fps]
Writing library : x264 core 146 r2538 121396c
Encoding settings : cabac=1 / ref=9 / deblock=1:0:0 / analyse=0x3:0x113 / me=umh / subme=10 / psy=1 / psy_rd=1.00:0.00 / mixed_ref=1 / me_range=24 / chroma_me=1 / trellis=2 / 8x8dct=1 / cqm=0 / deadzone=21,11 / fast_pskip=0 / chroma_qp_offset=-2 / threads=12 / lookahead_threads=1 / sliced_threads=0 / nr=0 / decimate=1 / interlaced=0 / bluray_compat=0 / constrained_intra=0 / bframes=5 / b_pyramid=2 / b_adapt=2 / b_bias=0 / direct=3 / weightb=1 / open_gop=0 / weightp=2 / keyint=250 / keyint_min=25 / scenecut=40 / intra_refresh=0 / rc=crf / mbtree=0 / crf=16.5 / qcomp=0.60 / qpmin=0 / qpmax=69 / qpstep=4 / ip_ratio=1.40 / pb_ratio=1.30 / aq=3:1.00
Language : English
Default : Yes
Forced : No
Audio #1
ID : 2
Format : AC-3
Format/Info : Audio Coding 3
Format settings, Endianness : Big
Codec ID : A_AC3
Duration : 2 h 2 min
Bit rate mode : Constant
Bit rate : 448 kb/s
Channel(s) : 6 channels
Channel positions : Front: L C R, Side: L R, LFE
Sampling rate : 48.0 kHz
Frame rate : 31.250 FPS (1536 SPF)
Bit depth : 16 bits
Compression mode : Lossy
Stream size : 391 MiB (8%)
Title : Dub
Language : Russian
Service kind : Complete Main
Default : Yes
Forced : No
Audio #2
ID : 3
Format : AC-3
Format/Info : Audio Coding 3
Format settings, Endianness : Big
Codec ID : A_AC3
Duration : 2 h 2 min
Bit rate mode : Constant
Bit rate : 448 kb/s
Channel(s) : 6 channels
Channel positions : Front: L C R, Side: L R, LFE
Sampling rate : 48.0 kHz
Frame rate : 31.250 FPS (1536 SPF)
Bit depth : 16 bits
Compression mode : Lossy
Stream size : 391 MiB (8%)
Title : Eng
Language : English
Service kind : Complete Main
Default : No
Forced : No
Text #1
ID : 4
Format : UTF-8
Codec ID : S_TEXT/UTF8
Codec ID/Info : UTF-8 Plain Text
Title : Rus forced
Language : Russian
Default : Yes
Forced : Yes
Text #2
ID : 5
Format : UTF-8
Codec ID : S_TEXT/UTF8
Codec ID/Info : UTF-8 Plain Text
Title : Rus full
Language : Russian
Default : No
Forced : No
Text #3
ID : 6
Format : UTF-8
Codec ID : S_TEXT/UTF8
Codec ID/Info : UTF-8 Plain Text
Title : Eng full
Language : English
Default : No
Forced : No
Menu
00:00:00.000 : :Chapter 01
00:04:47.662 : :Chapter 02
00:13:07.495 : :Chapter 03
00:18:11.924 : :Chapter 04
00:22:46.448 : :Chapter 05
00:27:51.169 : :Chapter 06
00:33:12.907 : :Chapter 07
00:37:18.736 : :Chapter 08
00:42:19.912 : :Chapter 09
00:47:43.694 : :Chapter 10
00:52:04.371 : :Chapter 11
00:55:56.269 : :Chapter 12
01:00:17.447 : :Chapter 13
01:06:20.643 : :Chapter 14
01:11:25.030 : :Chapter 15
01:16:35.882 : :Chapter 16
01:21:10.031 : :Chapter 17
01:28:18.793 : :Chapter 18
01:31:21.559 : :Chapter 19
01:34:52.436 : :Chapter 20
01:39:23.666 : :Chapter 21
01:43:35.876 : :Chapter 22
01:50:49.309 : :Chapter 23
01:55:27.754 : :Chapter 24
[Профиль] [ЛС]
Показать сообщения:    

Текущее время: Сегодня 19:05

Часовой пояс: GMT



Вы не можете начинать темы
Вы не можете отвечать на сообщения
Вы не можете редактировать свои сообщения
Вы не можете удалять свои сообщения
Вы не можете голосовать в опросах
Вы не можете прикреплять файлы к сообщениям
Вы не можете скачивать файлы