Чужой: Антология / Alien Anthology (1979/1986/1992/1997) BDRip 1080p | Theatrical Cut

 
Автор Сообщение

sergej644 ®

Пол:

Стаж: 4 года 11 месяцев

Сообщений: 6035

Откуда: Soviet Union



Награды: Нет

Торрент-статистика

Создавать темы 20-Мар-2015 13:46

[Цитировать]

--Чужой: Антология / Alien Anthology
Название: Чужой: Антология
Оригинальное название: Alien Anthology
Жанр: Боевик, фантастика, триллер, ужасы
Год выпуска: 1979 / 1986 / 1992 / 1997
Продолжительность: 01:56:37 | 02:17:14 | 01:54:52 | 01:48:48
Режиссёр: Ридли Скотт, Джеймс Кэмерон, Дэвид Финчер, Жан-Пьер Жёне

Данное коллекционное издание вмещает в себя все четыре фильма саги - театральная версия

Чужой / Alien (1979) BDRip 1080p

Чужой / Alien
«В космосе твой крик никто не услышит...»
Русское название: Чужой
Оригинальное название: Alien
Год выпуска: 1979
Жанр: ужасы, фантастика
Выпущено: США, Великобритания
Режиссер: Ридли Скотт / Ridley Scott
В ролях: Сигурни Уивер , Том Скеррит , Иэн Холм , Джон Хёрт , Гарри Дин Стэнтон , Вероника Картрайт , Яфет Котто , Боладжи Бадеджо , Хелен Хортон , Эдди Пауэлл
Перевод: Дублированный

Сюжет фильма:
В далеком будущем возвращающийся на Землю грузовой космический корабль перехватывает исходящий с неизвестной планеты неопознанный сигнал. Экипаж принимает решение совершить посадку и разобраться, в чем дело. Оказавшись на планете, астронавты повсюду обнаруживают неопознанные предметы, по виду напоминающие гигантские коконы...

Качество: BDRip 1080p (исходник Blu-ray)
Формат: AVC (библиотека кодирования x.264)
Контейнер (Расширение): MKV
Видео: 1920x816, 8431 Кбит/сек, 23,976 кадр/сек, 0,224 Бит/[Пиксели*Кадры]
Аудио №1: русский / AC3 / 5.1 / 48 kHz / 448 kbps / |Дублированный|
Аудио №2: английский / AC3 / 5.1 / 48 kHz / 640 kbps /
Субтитры: русские (Full), английские (Full)
Навигация по главам(Чаптеры): есть
Продолжительность: 01:56:37

MediaInfo

Format : Matroska
Format version : Version 2
File size : 7.75 GiB
Duration : 1h 56mn
Overall bit rate : 9 518 Kbps
Movie name : Chuzhoj.(1979).BDRip.1080p.[denis100]
Encoded date : UTC 2015-03-16 11:25:31
Writing application : mkvmerge v5.8.0 ('No Sleep / Pillow') built on Sep 2 2012 15:37:04
Writing library : libebml v1.2.3 + libmatroska v1.3.0
Video
ID : 1
Format : AVC
Format/Info : Advanced Video Codec
Format profile : High@L4.1
Format settings, CABAC : Yes
Format settings, ReFrames : 5 frames
Codec ID : V_MPEG4/ISO/AVC
Duration : 1h 56mn
Bit rate : 8 431 Kbps
Width : 1 920 pixels
Height : 816 pixels
Display aspect ratio : 2.35:1
Frame rate : 23.976 fps
Color space : YUV
Chroma subsampling : 4:2:0
Bit depth : 8 bits
Scan type : Progressive
Bits/(Pixel*Frame) : 0.224
Stream size : 6.71 GiB (87%)
Title : Chuzhoj.(1979).BDRip.1080p.[denis100]
Writing library : x264 core 144 r2525 40bb568
Encoding settings : cabac=1 / ref=5 / deblock=1:-3:-3 / analyse=0x3:0x133 / me=umh / subme=11 / psy=1 / psy_rd=1.00:0.00 / mixed_ref=1 / me_range=32 / chroma_me=1 / trellis=2 / 8x8dct=1 / cqm=0 / deadzone=21,11 / fast_pskip=0 / chroma_qp_offset=-2 / threads=6 / lookahead_threads=1 / sliced_threads=0 / nr=0 / decimate=1 / interlaced=0 / bluray_compat=0 / constrained_intra=0 / bframes=10 / b_pyramid=2 / b_adapt=2 / b_bias=0 / direct=3 / weightb=1 / open_gop=0 / weightp=2 / keyint=240 / keyint_min=23 / scenecut=40 / intra_refresh=0 / rc=2pass / mbtree=0 / bitrate=8431 / ratetol=1.0 / qcomp=0.60 / qpmin=0 / qpmax=69 / qpstep=4 / cplxblur=20.0 / qblur=0.5 / ip_ratio=1.40 / pb_ratio=1.30 / aq=1:1.00
Language : English
Default : Yes
Forced : No
Audio #1
ID : 2
Format : AC-3
Format/Info : Audio Coding 3
Mode extension : CM (complete main)
Codec ID : A_AC3
Duration : 1h 56mn
Bit rate mode : Constant
Bit rate : 448 Kbps
Channel(s) : 6 channels
Channel positions : Front: L C R, Side: L R, LFE
Sampling rate : 48.0 KHz
Bit depth : 16 bits
Compression mode : Lossy
Stream size : 374 MiB (5%)
Title : Дублированный
Language : Russian
Default : Yes
Forced : No
Audio #2
ID : 3
Format : AC-3
Format/Info : Audio Coding 3
Mode extension : CM (complete main)
Codec ID : A_AC3
Duration : 1h 56mn
Bit rate mode : Constant
Bit rate : 640 Kbps
Channel(s) : 6 channels
Channel positions : Front: L C R, Side: L R, LFE
Sampling rate : 48.0 KHz
Bit depth : 16 bits
Compression mode : Lossy
Stream size : 534 MiB (7%)
Title : English
Language : English
Default : No
Forced : No
Text #1
ID : 4
Format : UTF-8
Codec ID : S_TEXT/UTF8
Codec ID/Info : UTF-8 Plain Text
Title : Full
Language : Russian
Default : No
Forced : No
Text #2
ID : 5
Format : UTF-8
Codec ID : S_TEXT/UTF8
Codec ID/Info : UTF-8 Plain Text
Title : Full
Language : English
Default : No
Forced : No
Menu
00:00:00.000 : en:00:00:00.000
00:02:01.121 : en:00:02:01.121
00:09:17.223 : en:00:09:17.223
00:12:47.141 : en:00:12:47.141
00:18:36.949 : en:00:18:36.949
00:21:53.687 : en:00:21:53.687
00:23:53.974 : en:00:23:53.974
00:26:50.609 : en:00:26:50.609
00:31:06.781 : en:00:31:06.781
00:34:47.502 : en:00:34:47.502
00:39:14.268 : en:00:39:14.268
00:42:06.899 : en:00:42:06.899
00:46:25.282 : en:00:46:25.282
00:50:55.469 : en:00:50:55.469
00:53:35.837 : en:00:53:35.837
00:58:26.127 : en:00:58:26.127
01:03:32.475 : en:01:03:32.475
01:08:07.500 : en:01:08:07.500
01:11:01.173 : en:01:11:01.173
01:14:09.612 : en:01:14:09.612
01:15:51.130 : en:01:15:51.130
01:18:37.212 : en:01:18:37.212
01:24:10.128 : en:01:24:10.128
01:28:24.007 : en:01:28:24.007
01:30:54.324 : en:01:30:54.324
01:32:53.484 : en:01:32:53.484
01:34:44.512 : en:01:34:44.512
01:36:28.616 : en:01:36:28.616
01:39:27.545 : en:01:39:27.545
01:44:15.958 : en:01:44:15.958
01:47:05.669 : en:01:47:05.669
01:53:53.076 : en:01:53:53.076

Чужие / Aliens (1986) BDRip 1080p

Чужие / Aliens
«В некоторых местах Вселенной вы не одиноки...»
Русское название: Чужие
Оригинальное название: Aliens
Год выпуска: 1986
Жанр: ужасы, фантастика, боевик, триллер, приключения
Выпущено: США, Великобритания
Режиссер: Джеймс Кэмерон / James Cameron
В ролях: Сигурни Уивер , Майкл Бин , Кэрри Хенн , Пол Райзер , Лэнс Хенриксен , Билл Пэкстон , Дженетт Голдстин , Уильям Хоуп , Эл Мэтьюз , Марк Ролстон , Рикко Росс , Колетт Хиллер
Перевод: Дублированный

Сюжет фильма:
Чужой - совершенный организм. Идеальная машина для убийства, чье физическое превосходство сочетается с его феноменальной жаждой уничтожения. Офицер Элен Рипли и команда космического корабля Ностромо один раз уже встретилась с такой тварью. В живых осталась только Элен.
Капсула с Элен найдена спасателями после многих лет блуждания в космосе. Ей сообщают, что планета L.V. 426 колонизирована, и ей придется вернуться туда, где начался ее кошмар, ибо связь с колонистами прервалась. И вот в составе группы космического десанта Рипли отправляется на проклятую планету. Но теперь их там поджидает не один Чужой, а тысячи. Кто сможет выжить в этой войне: чудовища, способные только убивать, или люди, способные мыслить?

Качество: BDRip 1080p (исходник Blu-ray)
Формат: AVC (библиотека кодирования x.264)
Контейнер (Расширение): MKV
Видео: 1920x1036, 14000 Кбит/сек, 23,976 кадр/сек, 0,294 Бит/[Пиксели*Кадры]
Аудио №1: русский / AC3 / 5.1 / 48 kHz / 448 kbps / |Дублированный|
Аудио №2: английский / AC3 / 5.1 / 48 kHz / 640 kbps /
Субтитры: русские (Full), английские (Full)
Навигация по главам(Чаптеры): есть
Продолжительность: 02:17:14

MediaInfo

Format : Matroska
Format version : Version 2
File size : 14.5 GiB
Duration : 2h 17mn
Overall bit rate : 15.1 Mbps
Movie name : Chuzhie.(1986).BDRip.1080p.[denis100]
Encoded date : UTC 2015-03-18 12:12:42
Writing application : mkvmerge v5.8.0 ('No Sleep / Pillow') built on Sep 2 2012 15:37:04
Writing library : libebml v1.2.3 + libmatroska v1.3.0
Video
ID : 1
Format : AVC
Format/Info : Advanced Video Codec
Format profile : High@L4.1
Format settings, CABAC : Yes
Format settings, ReFrames : 4 frames
Codec ID : V_MPEG4/ISO/AVC
Duration : 2h 17mn
Bit rate : 14.0 Mbps
Width : 1 920 pixels
Height : 1 036 pixels
Display aspect ratio : 1.853
Frame rate : 23.976 fps
Color space : YUV
Chroma subsampling : 4:2:0
Bit depth : 8 bits
Scan type : Progressive
Bits/(Pixel*Frame) : 0.294
Stream size : 13.1 GiB (91%)
Title : Chuzhie.(1986).BDRip.1080p.[denis100]
Writing library : x264 core 146 r2538 121396c
Encoding settings : cabac=1 / ref=4 / deblock=1:-3:-3 / analyse=0x3:0x133 / me=umh / subme=11 / psy=1 / psy_rd=1.00:0.00 / mixed_ref=1 / me_range=32 / chroma_me=1 / trellis=2 / 8x8dct=1 / cqm=0 / deadzone=21,11 / fast_pskip=0 / chroma_qp_offset=-2 / threads=6 / lookahead_threads=1 / sliced_threads=0 / nr=0 / decimate=1 / interlaced=0 / bluray_compat=0 / constrained_intra=0 / bframes=10 / b_pyramid=2 / b_adapt=2 / b_bias=0 / direct=3 / weightb=1 / open_gop=0 / weightp=2 / keyint=240 / keyint_min=23 / scenecut=40 / intra_refresh=0 / rc=2pass / mbtree=0 / bitrate=14000 / ratetol=1.0 / qcomp=0.60 / qpmin=0 / qpmax=69 / qpstep=4 / cplxblur=20.0 / qblur=0.5 / ip_ratio=1.40 / pb_ratio=1.30 / aq=1:1.00
Language : English
Default : Yes
Forced : No
Audio #1
ID : 2
Format : AC-3
Format/Info : Audio Coding 3
Mode extension : CM (complete main)
Codec ID : A_AC3
Duration : 2h 17mn
Bit rate mode : Constant
Bit rate : 448 Kbps
Channel(s) : 6 channels
Channel positions : Front: L C R, Side: L R, LFE
Sampling rate : 48.0 KHz
Bit depth : 16 bits
Compression mode : Lossy
Stream size : 440 MiB (3%)
Title : Дублированный
Language : Russian
Default : Yes
Forced : No
Audio #2
ID : 3
Format : AC-3
Format/Info : Audio Coding 3
Mode extension : CM (complete main)
Codec ID : A_AC3
Duration : 2h 17mn
Bit rate mode : Constant
Bit rate : 640 Kbps
Channel(s) : 6 channels
Channel positions : Front: L C R, Side: L R, LFE
Sampling rate : 48.0 KHz
Bit depth : 16 bits
Compression mode : Lossy
Stream size : 628 MiB (4%)
Title : English
Language : English
Default : No
Forced : No
Text #1
ID : 4
Format : UTF-8
Codec ID : S_TEXT/UTF8
Codec ID/Info : UTF-8 Plain Text
Title : Full
Language : Russian
Default : No
Forced : No
Text #2
ID : 5
Format : UTF-8
Codec ID : S_TEXT/UTF8
Codec ID/Info : UTF-8 Plain Text
Title : Full
Language : English
Default : No
Forced : No
Menu
00:00:00.000 : en:00:00:00.000
00:05:15.732 : en:00:05:15.732
00:08:52.407 : en:00:08:52.407
00:12:33.378 : en:00:12:33.378
00:15:38.688 : en:00:15:38.688
00:17:17.870 : en:00:17:17.870
00:23:07.011 : en:00:23:07.011
00:28:16.653 : en:00:28:16.653
00:35:08.648 : en:00:35:08.648
00:42:33.384 : en:00:42:33.384
00:43:54.423 : en:00:43:54.423
00:52:01.285 : en:00:52:01.285
00:57:56.306 : en:00:57:56.306
01:00:37.300 : en:01:00:37.300
01:04:08.178 : en:01:04:08.178
01:08:05.081 : en:01:08:05.081
01:11:02.508 : en:01:11:02.508
01:14:01.270 : en:01:14:01.270
01:17:54.294 : en:01:17:54.294
01:20:47.718 : en:01:20:47.718
01:23:21.580 : en:01:23:21.580
01:28:35.643 : en:01:28:35.643
01:30:22.292 : en:01:30:22.292
01:36:05.134 : en:01:36:05.134
01:45:17.102 : en:01:45:17.102
01:49:00.784 : en:01:49:00.784
01:51:50.662 : en:01:51:50.662
01:55:48.525 : en:01:55:48.525
02:04:15.656 : en:02:04:15.656
02:06:03.806 : en:02:06:03.806
02:13:03.100 : en:02:13:03.100
02:14:23.472 : en:02:14:23.472

Чужой 3 / Alien 3 (1992) BDRip 1080p

Чужой 3 / Alien 3
«Снова началось...»
Русское название: Чужой 3
Оригинальное название: Alien 3
Год выпуска: 1992
Жанр: ужасы, фантастика, боевик, триллер
Выпущено: США
Режиссер: Дэвид Финчер / David Fincher
В ролях: Сигурни Уивер , Чарльз С. Даттон , Чарльз Дэнс , Пол МакГанн , Брайан Гловер , Ральф Браун , Дэниэл Уэбб , Кристофер Джон Филдс , Холт МакКэллани , Лэнс Хенриксен , Кристофер Фэйрбэнк , Карл Чейз
Перевод: Дублированный

Сюжет фильма:
После бегства с планеты «Чужих» космический корабль Рипли терпит катастрофу вблизи так называемой планеты - тюрьмы, места, где отсиживают свой срок убийцы, насильники и прочие отбросы общества. Вместе с Рипли на эту планету попадает зародыш чужого, который и был причиной гибели корабля. Довольно быстро он превращается в гигантскую, зубастую тварь и начинает свое темное дело.
Его жертвами становятся десятки безоружных заключенных. Кровь брызжет фонтаном, куски человеческого мяса разлетаются во все стороны. И кажется, что остановить эту машину смерти не сможет никто, никто кроме отважной, но увы не бессмертной девушки по имени Рипли.

Качество: BDRip 1080p (исходник Blu-ray)
Формат: AVC (библиотека кодирования x.264)
Контейнер (Расширение): MKV
Видео: 1920x810, 8580 Кбит/сек, 23,976 кадр/сек, 0,230 Бит/[Пиксели*Кадры]
Аудио №1: русский / AC3 / 5.1 / 48 kHz / 448 kbps / |Дублированный|
Аудио №2: английский / AC3 / 5.1 / 48 kHz / 640 kbps /
Субтитры: русские (Full), английские (Full)
Навигация по главам(Чаптеры): есть
Продолжительность: 01:54:52

MediaInfo

Format : Matroska
Format version : Version 2
File size : 7.76 GiB
Duration : 1h 54mn
Overall bit rate : 9 668 Kbps
Movie name : Chuzhoj 3.(1992).BDRip.1080p.[denis100]
Encoded date : UTC 2015-03-19 11:07:41
Writing application : mkvmerge v5.8.0 ('No Sleep / Pillow') built on Sep 2 2012 15:37:04
Writing library : libebml v1.2.3 + libmatroska v1.3.0
Video
ID : 1
Format : AVC
Format/Info : Advanced Video Codec
Format profile : High@L4.1
Format settings, CABAC : Yes
Format settings, ReFrames : 5 frames
Codec ID : V_MPEG4/ISO/AVC
Duration : 1h 54mn
Bit rate : 8 580 Kbps
Width : 1 920 pixels
Height : 810 pixels
Display aspect ratio : 2.35:1
Frame rate : 23.976 fps
Color space : YUV
Chroma subsampling : 4:2:0
Bit depth : 8 bits
Scan type : Progressive
Bits/(Pixel*Frame) : 0.230
Stream size : 6.73 GiB (87%)
Title : Chuzhoj 3.(1992).BDRip.1080p.[denis100]
Writing library : x264 core 146 r2538 121396c
Encoding settings : cabac=1 / ref=5 / deblock=1:-3:-3 / analyse=0x3:0x133 / me=umh / subme=11 / psy=1 / psy_rd=1.00:0.00 / mixed_ref=1 / me_range=32 / chroma_me=1 / trellis=2 / 8x8dct=1 / cqm=0 / deadzone=21,11 / fast_pskip=0 / chroma_qp_offset=-2 / threads=6 / lookahead_threads=1 / sliced_threads=0 / nr=0 / decimate=1 / interlaced=0 / bluray_compat=0 / constrained_intra=0 / bframes=8 / b_pyramid=2 / b_adapt=2 / b_bias=0 / direct=3 / weightb=1 / open_gop=0 / weightp=2 / keyint=240 / keyint_min=23 / scenecut=40 / intra_refresh=0 / rc=2pass / mbtree=0 / bitrate=8580 / ratetol=1.0 / qcomp=0.60 / qpmin=0 / qpmax=69 / qpstep=4 / cplxblur=20.0 / qblur=0.5 / ip_ratio=1.40 / pb_ratio=1.30 / aq=1:1.00
Language : English
Default : Yes
Forced : No
Audio #1
ID : 2
Format : AC-3
Format/Info : Audio Coding 3
Mode extension : CM (complete main)
Codec ID : A_AC3
Duration : 1h 54mn
Bit rate mode : Constant
Bit rate : 448 Kbps
Channel(s) : 6 channels
Channel positions : Front: L C R, Side: L R, LFE
Sampling rate : 48.0 KHz
Bit depth : 16 bits
Compression mode : Lossy
Stream size : 368 MiB (5%)
Title : Дублированный
Language : Russian
Default : Yes
Forced : No
Audio #2
ID : 3
Format : AC-3
Format/Info : Audio Coding 3
Mode extension : CM (complete main)
Codec ID : A_AC3
Duration : 1h 54mn
Bit rate mode : Constant
Bit rate : 640 Kbps
Channel(s) : 6 channels
Channel positions : Front: L C R, Side: L R, LFE
Sampling rate : 48.0 KHz
Bit depth : 16 bits
Compression mode : Lossy
Stream size : 526 MiB (7%)
Title : English
Language : English
Default : No
Forced : No
Text #1
ID : 4
Format : UTF-8
Codec ID : S_TEXT/UTF8
Codec ID/Info : UTF-8 Plain Text
Title : Full
Language : Russian
Default : No
Forced : No
Text #2
ID : 5
Format : UTF-8
Codec ID : S_TEXT/UTF8
Codec ID/Info : UTF-8 Plain Text
Title : Full
Language : English
Default : No
Forced : No
Menu
00:00:00.000 : en:00:00:00.000
00:03:42.973 : en:00:03:42.973
00:04:45.994 : en:00:04:45.994
00:07:34.746 : en:00:07:34.746
00:09:33.948 : en:00:09:33.948
00:11:48.291 : en:00:11:48.291
00:14:43.633 : en:00:14:43.633
00:21:52.311 : en:00:21:52.311
00:26:22.789 : en:00:26:22.789
00:30:19.985 : en:00:30:19.985
00:35:41.639 : en:00:35:41.639
00:37:40.800 : en:00:37:40.800
00:39:02.298 : en:00:39:02.298
00:41:33.825 : en:00:41:33.825
00:45:12.460 : en:00:45:12.460
00:48:13.349 : en:00:48:13.349
00:51:31.505 : en:00:51:31.505
00:55:57.521 : en:00:55:57.521
00:58:25.502 : en:00:58:25.502
01:01:04.202 : en:01:01:04.202
01:05:00.480 : en:01:05:00.480
01:09:35.755 : en:01:09:35.755
01:12:41.690 : en:01:12:41.690
01:15:43.622 : en:01:15:43.622
01:19:03.614 : en:01:19:03.614
01:22:14.721 : en:01:22:14.721
01:27:15.105 : en:01:27:15.105
01:35:59.587 : en:01:35:59.587
01:38:42.416 : en:01:38:42.416
01:41:23.410 : en:01:41:23.410
01:43:16.148 : en:01:43:16.148
01:49:09.751 : en:01:49:09.751

Чужой 4: Воскрешение / Alien: Resurrection (1997) BDRip 1080p

Чужой 4: Воскрешение / Alien: Resurrection
«Главное - спастись...»
Русское название: Чужой 4: Воскрешение
Оригинальное название: Alien: Resurrection
Год выпуска: 1997
Жанр: ужасы, фантастика, боевик, триллер
Выпущено: США
Режиссер: Жан-Пьер Жёне / Jean-Pierre Jeunet
В ролях: Сигурни Уивер , Вайнона Райдер , Доминик Пинон , Рон Перлман , Гари Дурдан , Майкл Уинкотт , Дж.Э. Фримен , Лиленд Орсер , Брэд Дуриф , Дэн Хедайя , Ким Флауэрс , Рэймонд Крус
Перевод: Дублированный

Сюжет фильма:
Спустя двести лет после событий, произошедших на планете-тюрьме, группа ученых, опекаемых военным командованием, клонирует Эллен Рипли, чтобы с ее помощью заполучить детеныша инопланетного монстра. Вскоре он уже сам начинает плодиться, производя на свет новую породу - помесь кровожадного пришельца и... человека.

Качество: BDRip 1080p (исходник Blu-ray)
Формат: AVC (библиотека кодирования x.264)
Контейнер (Расширение): MKV
Видео: 1920x820, 9373 Кбит/сек, 23,976 кадр/сек, 0,248 Бит/[Пиксели*Кадры]
Аудио №1: русский / AC3 / 5.1 / 48 kHz / 448 kbps / |Дублированный|
Аудио №2: английский / AC3 / 5.1 / 48 kHz / 640 kbps /
Субтитры: русские (Full), английские (Full)
Навигация по главам(Чаптеры): есть
Продолжительность: 01:48:48

MediaInfo

Format : Matroska
Format version : Version 2
File size : 7.95 GiB
Duration : 1h 48mn
Overall bit rate : 10.5 Mbps
Movie name : Chuzhoj 4: Voskreshenie.(1997).BDRip.1080p.[denis100]
Encoded date : UTC 2015-03-20 10:04:58
Writing application : mkvmerge v5.8.0 ('No Sleep / Pillow') built on Sep 2 2012 15:37:04
Writing library : libebml v1.2.3 + libmatroska v1.3.0
Video
ID : 1
Format : AVC
Format/Info : Advanced Video Codec
Format profile : High@L4.1
Format settings, CABAC : Yes
Format settings, ReFrames : 5 frames
Codec ID : V_MPEG4/ISO/AVC
Duration : 1h 48mn
Bit rate : 9 373 Kbps
Width : 1 920 pixels
Height : 820 pixels
Display aspect ratio : 2.35:1
Frame rate : 23.976 fps
Color space : YUV
Chroma subsampling : 4:2:0
Bit depth : 8 bits
Scan type : Progressive
Bits/(Pixel*Frame) : 0.248
Stream size : 6.96 GiB (88%)
Title : Chuzhoj 4: Voskreshenie.(1997).BDRip.1080p.[denis100]
Writing library : x264 core 146 r2538 121396c
Encoding settings : cabac=1 / ref=5 / deblock=1:-3:-3 / analyse=0x3:0x133 / me=umh / subme=11 / psy=1 / psy_rd=1.00:0.00 / mixed_ref=1 / me_range=32 / chroma_me=1 / trellis=2 / 8x8dct=1 / cqm=0 / deadzone=21,11 / fast_pskip=0 / chroma_qp_offset=-2 / threads=6 / lookahead_threads=1 / sliced_threads=0 / nr=0 / decimate=1 / interlaced=0 / bluray_compat=0 / constrained_intra=0 / bframes=9 / b_pyramid=2 / b_adapt=2 / b_bias=0 / direct=3 / weightb=1 / open_gop=0 / weightp=2 / keyint=240 / keyint_min=23 / scenecut=40 / intra_refresh=0 / rc=2pass / mbtree=0 / bitrate=9373 / ratetol=1.0 / qcomp=0.60 / qpmin=0 / qpmax=69 / qpstep=4 / cplxblur=20.0 / qblur=0.5 / ip_ratio=1.40 / pb_ratio=1.30 / aq=1:1.00
Language : English
Default : Yes
Forced : No
Audio #1
ID : 2
Format : AC-3
Format/Info : Audio Coding 3
Mode extension : CM (complete main)
Codec ID : A_AC3
Duration : 1h 48mn
Bit rate mode : Constant
Bit rate : 448 Kbps
Channel(s) : 6 channels
Channel positions : Front: L C R, Side: L R, LFE
Sampling rate : 48.0 KHz
Bit depth : 16 bits
Compression mode : Lossy
Stream size : 349 MiB (4%)
Title : Дублированный
Language : Russian
Default : Yes
Forced : No
Audio #2
ID : 3
Format : AC-3
Format/Info : Audio Coding 3
Mode extension : CM (complete main)
Codec ID : A_AC3
Duration : 1h 48mn
Bit rate mode : Constant
Bit rate : 640 Kbps
Channel(s) : 6 channels
Channel positions : Front: L C R, Side: L R, LFE
Sampling rate : 48.0 KHz
Bit depth : 16 bits
Compression mode : Lossy
Stream size : 498 MiB (6%)
Title : English
Language : English
Default : No
Forced : No
Text #1
ID : 4
Format : UTF-8
Codec ID : S_TEXT/UTF8
Codec ID/Info : UTF-8 Plain Text
Title : Full
Language : Russian
Default : No
Forced : No
Text #2
ID : 5
Format : UTF-8
Codec ID : S_TEXT/UTF8
Codec ID/Info : UTF-8 Plain Text
Title : Full
Language : English
Default : No
Forced : No
Menu
00:00:00.000 : en:00:00:00.000
00:02:27.314 : en:00:02:27.314
00:05:16.983 : en:00:05:16.983
00:07:36.122 : en:00:07:36.122
00:10:26.251 : en:00:10:26.251
00:13:08.079 : en:00:13:08.079
00:18:06.168 : en:00:18:06.168
00:21:49.475 : en:00:21:49.475
00:25:38.245 : en:00:25:38.245
00:28:38.592 : en:00:28:38.592
00:32:46.172 : en:00:32:46.172
00:34:56.219 : en:00:34:56.219
00:38:06.159 : en:00:38:06.159
00:42:00.143 : en:00:42:00.143
00:49:04.859 : en:00:49:04.859
00:52:34.443 : en:00:52:34.443
00:58:31.133 : en:00:58:31.133
01:02:46.096 : en:01:02:46.096
01:13:56.057 : en:01:13:56.057
01:16:26.207 : en:01:16:26.207
01:21:15.829 : en:01:21:15.829
01:24:40.575 : en:01:24:40.575
01:27:09.933 : en:01:27:09.933
01:31:52.799 : en:01:31:52.799
01:33:39.948 : en:01:33:39.948
01:36:44.257 : en:01:36:44.257
01:40:46.707 : en:01:40:46.707
01:42:27.975 : en:01:42:27.975
[Профиль] [ЛС]
Показать сообщения:    

Текущее время: Сегодня 09:58

Часовой пояс: GMT



Вы не можете начинать темы
Вы не можете отвечать на сообщения
Вы не можете редактировать свои сообщения
Вы не можете удалять свои сообщения
Вы не можете голосовать в опросах
Вы не можете прикреплять файлы к сообщениям
Вы не можете скачивать файлы