Чужие против Хищника: Реквием / AVPR: Aliens vs Predator - Requiem (Колин Штраус / Colin Strause, Грег Штраус / Greg Strause) [2007, США, Ужасы, фантастика, боевик, триллер, BDRip] [Расширенная версия / Unrated cut] Dub

 
Автор Сообщение

TorrentFilm ®

Пол:

Стаж: 2 года

Сообщений: 7741



Награды: Нет

Торрент-статистика

Создавать темы 07-Янв-2016 00:12

[Цитировать]

Чужие против Хищника: Реквием / AVPR: Aliens vs Predator - Requiem
«На Земле каждый услышит твой крик»
- Год выпуска: 2007
Выпущено: США / 20th Century Fox Film Corporation
Жанр: ужасы, фантастика, боевик, триллер
Продолжительность: 01:41:05
Перевод: Профессиональный (полное дублирование)
Cубтитры: нет-Режиссер:
Колин Штраус / Colin Strause, Грег Штраус / Greg Strause-В ролях:
Стивен Паскуале (Dallas), Рейко Эйлсворт (Kelly), Джон Ортис (Morales), Джонни Льюис (Ricky), Эриель Гейд (Molly), Кристен Хагер (Jesse), Сэм Трэммелл (Tim), Роберт Джой (Col. Stevens), Дэвид Петкау (Dale), Том Вудрафф мл. (Alien), Йен Уайт (Predator)-Описание:
Атакованный «Предалиеном», жутким гибридом Хищника и Чужого, корабль Хищников терпит крушение в лесах, окружающих маленький техасский городок. И пока на сигнал о помощи, посланный в момент падения, спешит подкрепление, Чужие успевают инфицировать половину населения города.-Релиз групп | | IMDB | КиноПоиск | Сэмпл |-Качество: BDRip [Aliens.Vs.Predator.Requiem.2007.Blu-Ray.Remux.HDTracker]
Формат: AVI
Видео: 720x304 (2.37:1), 23.976 fps, XviD build 67 ~1669 kbps avg, 0.32 bit/pixel
Аудио: 48 kHz, AC3 Dolby Digital, 3/2 (L,C,R,l,r) + LFE ch, ~384 kbps avg
-

Скриншоты

MediaInfo

Общее
Полное имя                               : D:\Chuzhie_protiv_Hischnika_Rekviem_2007_BDRip_[UNRATED]_by_Dalemake.avi
Формат                                   : AVI
Формат/Информация                        : Audio Video Interleave
Размер файла                             : 1,46 Гбайт
Продолжительность                        : 1 ч. 41 м.
Общий поток                              : 2063 Кбит/сек
Программа кодирования                    : VirtualDubMod 1.5.10.3 | www.virtualdub-fr.org || (build 2550/release)
Библиотека кодирования                   : VirtualDubMod build 2550/release
Видео
Идентификатор                            : 0
Формат                                   : MPEG-4 Visual
Профиль формата                          : Advanced Simple@L5
Параметр BVOP формата                    : 1
Параметр QPel формата                    : Нет
Параметр GMC формата                     : Без точки перехода
Параметр матрицы формата                 : Выборочная
Идентификатор кодека                     : XVID
Идентификатор кодека/Подсказка           : XviD
Продолжительность                        : 1 ч. 41 м.
Битрейт                                  : 1670 Кбит/сек
Ширина                                   : 720 пикселей
Высота                                   : 304 пикселя
Соотношение сторон                       : 2,35:1
Частота кадров                           : 23,976 кадра/сек
Цветовое пространство                    : YUV
Субдискретизация насыщенности            : 4:2:0
Битовая глубина                          : 8 бит
Тип развёртки                            : Прогрессивная
Метод сжатия                             : С потерями
Бит/(Пиксели*Кадры)                      : 0.318
Размер потока                            : 1,18 Гбайт (81%)
Библиотека кодирования                   : XviD 67
Аудио
Идентификатор                            : 1
Формат                                   : AC-3
Формат/Информация                        : Audio Coding 3
Расширение режима                        : CM (complete main)
Параметр Endianness формата              : Big
Идентификатор кодека                     : 2000
Продолжительность                        : 1 ч. 41 м.
Вид битрейта                             : Постоянный
Битрейт                                  : 384 Кбит/сек
Каналы                                   : 6 каналов
Расположение каналов                     : Front: L C R, Side: L R, LFE
Частота                                  : 48,0 КГц
Битовая глубина                          : 16 бит
Метод сжатия                             : С потерями
Размер потока                            : 278 Мбайт (19%)
Выравнивание                             : Разделение по промежуткам
Продолжительность промежутка             : 42  мс. (1,00 видеокадр)
Время предзагрузки промежутка            : 500  мс.
Сравнениеhttp://torrentfilm.net/forum/viewtopic.php?t=2939499
http://screenshotcomparison.com/comparison/157030
+ писал(а):Параметр BVOP формата : 3-
[Профиль] [ЛС]
Показать сообщения:    

Текущее время: Сегодня 12:14

Часовой пояс: GMT



Вы не можете начинать темы
Вы не можете отвечать на сообщения
Вы не можете редактировать свои сообщения
Вы не можете удалять свои сообщения
Вы не можете голосовать в опросах
Вы не можете прикреплять файлы к сообщениям
Вы не можете скачивать файлы