Чужие против Хищника: Реквием / Aliens vs Predator (Колин Штраус / Colin Strause, Грег Штраус / Greg Strause) [2007, Германия, США, Великобритания, Чехия, ужасы, фантастика, боевик, триллер, BDRip-AVC] [Unrated] Dub+MVO+AVO+ Sub Rus,Eng + Original

 
Автор Сообщение

TorrentFilm ®

Пол:

Стаж: 2 года

Сообщений: 7741



Награды: Нет

Торрент-статистика

Создавать темы 06-Мар-2015 00:01

[Цитировать]

Чужие против Хищника: РеквиемAliens vs Predator - RequiemПолная версия / Unrated Edition«На Земле каждый услышит твой крик»
Страна: Германия, США, Великобритания, Чехия
Жанр: ужасы, фантастика, боевик, триллер
Год выпуска: 2007
Продолжительность: 01:41:05
Перевод: Профессиональный (дублированный) Blu-ray CFE
Перевод 2: Профессиональный (многоголосый закадровый) Киномания
Перевод 3: Авторский (одноголосый закадровый) Ю.Немахов
Cубтитры: русские ,английские
Оригинальная аудиодорожка: английский
Режиссер: Колин Штраус / Colin Strause, Грег Штраус / Greg Strause
В ролях: Стивен Паскуале (Dallas), Рейко Эйлсворт (Kelly), Джон Ортиз (Morales), Джонни Льюис (Ricky), Эриель Гейд (Molly), Кристен Хагер (Jesse), Сэм Траммелл (Tim), Роберт Джой (Col. Stevens), Дэвид Петкау (Dale), Том Вудрафф мл. (Alien), Йен Уайт (Predator), Чела Хорсдэл (Darcy)
Описание: Атакованный «Предалиеном», жутким гибридом Хищника и Чужого, корабль Хищников терпит крушение в лесах, окружающих маленький техасский городок. И пока на сигнал о помощи, посланный в момент падения, спешит подкрепление, Чужие успевают инфицировать половину населения города.
Доп. информация:
Релиз группы:
Качество видео: BDRip-AVC | Чужие против Хищника: Реквием / Aliens vs. Predator Requiem [Extreme Unrated (2007) BD-remux |
Формат видео: MKV
Видео: 1152x480 (2:40:1), 23,976 fps, 2570 Кbps, 0.194 bit/pixe
Аудио: 48 kHz, AC3 Dolby Digital, 3/2 (L,C,R,l,r) + LFE ch, ~448.00 kbps avg | DUB
Аудио 2: 48 kHz, AC3 Dolby Digital, 3/2 (L,C,R,l,r) + LFE ch, ~448.00 kbps avg | MVO отдельно
Аудио 3: 48 kHz, AC3 Dolby Digital, 3/2 (L,C,R,l,r) + LFE ch, ~448.00 kbps avg | AVO отдельно
Аудио 4: 48 kHz, AC3 Dolby Digital, 3/2 (L,C,R,l,r) + LFE ch, ~448.00 kbps avg | ENG
Формат субтитров: softsub (SRT)
Доп. информация о субтитрах: отключаемые

MediaInfo

General
Unique ID : 192865758175069148626892450250820921387 (0x91189809482DCDA5AF031A8CD7EBA82B)
Complete name : E:\Мои рипы\Чужие против Хищника Реквием\Aliens vs. Predator - Requiem by_IVAN@190282.mkv
Format : Matroska
Format version : Version 2
File size : 2.50 GiB
Duration : 1h 41mn
Overall bit rate : 3 536 Kbps
Encoded date : UTC 2015-02-27 23:36:49
Writing application : mkvmerge v7.0.0 ('Where We Going') 64bit built on Jun 9 2014 15:16:27
Writing library : libebml v1.3.0 + libmatroska v1.4.1
DURATION : 01:31:19.440000000
NUMBER_OF_FRAMES : 812
NUMBER_OF_BYTES : 18874
_STATISTICS_WRITING_APP : mkvmerge v7.0.0 ('Where We Going') 64bit built on Jun 9 2014 15:16:27
_STATISTICS_WRITING_DATE_UTC : 2015-02-27 23:36:49
_STATISTICS_TAGS : BPS DURATION NUMBER_OF_FRAMES NUMBER_OF_BYTES
Video
ID : 1
Format : AVC
Format/Info : Advanced Video Codec
Format profile : High@L4.1
Format settings, CABAC : Yes
Format settings, ReFrames : 13 frames
Codec ID : V_MPEG4/ISO/AVC
Duration : 1h 41mn
Bit rate : 2 570 Kbps
Width : 1 152 pixels
Height : 480 pixels
Display aspect ratio : 2.40:1
Frame rate mode : Constant
Frame rate : 23.976 fps
Color space : YUV
Chroma subsampling : 4:2:0
Bit depth : 8 bits
Scan type : Progressive
Bits/(Pixel*Frame) : 0.194
Stream size : 1.81 GiB (73%)
Writing library : x264 core 144 r2525kMod 40bb568
Encoding settings : cabac=1 / ref=13 / deblock=1:-3:-3 / analyse=0x3:0x113 / me=umh / subme=11 / psy=1 / fade_compensate=0.00 / psy_rd=1.00:0.15 / mixed_ref=1 / me_range=48 / chroma_me=1 / trellis=2 / 8x8dct=1 / cqm=0 / deadzone=21,11 / fast_pskip=0 / chroma_qp_offset=0 / threads=6 / lookahead_threads=6 / sliced_threads=0 / slices=10 / nr=0 / decimate=1 / interlaced=0 / bluray_compat=0 / constrained_intra=0 / fgo=0 / bframes=16 / b_pyramid=2 / b_adapt=2 / b_bias=0 / direct=3 / weightb=1 / open_gop=1 / weightp=2 / keyint=240 / keyint_min=23 / scenecut=40 / intra_refresh=0 / rc_lookahead=40 / rc=crf / mbtree=0 / crf=18.5000 / qcomp=0.60 / qpmin=0 / qpmax=69 / qpstep=4 / vbv_maxrate=50000 / vbv_bufsize=62500 / crf_max=0.0 / nal_hrd=none / filler=0 / ip_ratio=1.40 / pb_ratio=1.30 / aq=1:1.00
Default : Yes
Forced : No
Color primaries : BT.709
Transfer characteristics : BT.709
Matrix coefficients : BT.709
Audio #1
ID : 2
Format : AC-3
Format/Info : Audio Coding 3
Mode extension : CM (complete main)
Format settings, Endianness : Big
Codec ID : A_AC3
Duration : 1h 41mn
Bit rate mode : Constant
Bit rate : 448 Kbps
Channel(s) : 6 channels
Channel positions : Front: L C R, Side: L R, LFE
Sampling rate : 48.0 KHz
Bit depth : 16 bits
Compression mode : Lossy
Stream size : 324 MiB (13%)
Title : Dub
Default : Yes
Forced : No
Audio #2
ID : 3
Format : AC-3
Format/Info : Audio Coding 3
Mode extension : CM (complete main)
Format settings, Endianness : Big
Codec ID : A_AC3
Duration : 1h 41mn
Bit rate mode : Constant
Bit rate : 448 Kbps
Channel(s) : 6 channels
Channel positions : Front: L C R, Side: L R, LFE
Sampling rate : 48.0 KHz
Bit depth : 16 bits
Compression mode : Lossy
Stream size : 324 MiB (13%)
Title : Eng
Default : No
Forced : No
Text #1
ID : 4
Format : UTF-8
Codec ID : S_TEXT/UTF8
Codec ID/Info : UTF-8 Plain Text
Title : Rus
Default : Yes
Forced : No
Text #2
ID : 5
Format : UTF-8
Codec ID : S_TEXT/UTF8
Codec ID/Info : UTF-8 Plain Text
Title : Eng
Default : No
Forced : No
Menu
00:00:00.000 : en:Main Titles/Crash Landing
00:03:44.433 : en:Unsuspecting Victims
00:05:57.023 : en:Distress Call
00:06:51.828 : en:Old Friends
00:08:44.190 : en:Pizza Delivery
00:13:27.306 : en:Alien Advance
00:15:19.794 : en:Homecoming
00:19:29.251 : en:Predator Warrior
00:24:27.674 : en:Strange Discoveries
00:29:51.498 : en:The Search
00:33:27.422 : en:Another Victim
00:38:34.270 : en:An Invitation
00:39:59.355 : en:Epic Battle
00:42:41.934 : en:Advancing Terror
00:45:33.564 : en:The Battle Continues
00:50:05.711 : en:Hunting
00:53:40.217 : en:Widening Crisis
00:59:39.910 : en:Preparing For Battle
01:04:57.727 : en:The Enemy Multiplies
01:06:52.759 : en:No Refuge
01:09:24.243 : en:Escape Attempt
01:12:09.742 : en:Choosing Sides
01:16:36.967 : en:Grim Discovery
01:19:14.374 : en:Collateral Damage
01:23:19.661 : en:Dodging Death
01:28:44.194 : en:Annihilation
01:31:31.861 : en:Survival
01:34:05.598 : en:Classified Material/End Titles

x264 log

VIDEO ENCODING
x264 [info]: frame I:875 Avg QP:15.47 size: 58064
x264 [info]: frame P:34913 Avg QP:17.00 size: 25161
x264 [info]: frame B:109631 Avg QP:18.90 size: 9757
x264 [info]: consecutive B-frames: 3.6% 4.5% 10.4% 20.6% 22.4% 22.8% 6.9% 2.1% 1.8% 2.0% 0.6% 0.4% 0.4% 0.4% 0.2% 0.1% 0.8%
x264 [info]: kb/s:2636.52
x264 [total]: encoded 145419 frames, 4.92 fps, 2636.52 kb/s, duration 8:12:16.59

Скриншот c названием фильма

Скриншоты

Убедительная просьба пожалуйста кто скачал не бросайте раздачу!!!
[Профиль] [ЛС]

Создавать темы 06-Авг-2015 22:42 (спустя 5 месяцев)

Топик был перенесен из форума Фильмы до 2014 года в форум Фильмы до 2012 года
sergej644
 
Показать сообщения:    

Текущее время: Сегодня 08:50

Часовой пояс: GMT



Вы не можете начинать темы
Вы не можете отвечать на сообщения
Вы не можете редактировать свои сообщения
Вы не можете удалять свои сообщения
Вы не можете голосовать в опросах
Вы не можете прикреплять файлы к сообщениям
Вы не можете скачивать файлы