Чужие окна (Розалия Зельма) [1985, рисованный мультфильм, DVDRip]

 
Автор Сообщение

TorrentFilm ®

Пол:

Стаж: 1 год 11 месяцев

Сообщений: 7741



Награды: Нет

Торрент-статистика

Создавать темы 01-Июн-2015 00:04

[Цитировать]

Чужие окна
Страна: СССР
Производство: ТО Экран
Жанр: рисованный мультфильм
Продолжительность: 00:04:16
Год выпуска: 1985
Русские субтитры: нет
Режиссёр: Розалия Зельма
Описание: О том, что безнравственно заглядывать в чужие окна.
Кинопоиск
Качество: DVDRip
Формат: AVI
Видео: 720x544 (1.32:1), 25 fps, XviD MPEG-4 ~2000 kbps avg, 0.204 bit/pixel
Аудио: 48.0 kHz, MPEG Layer 3, 2 ch, ~128.00 kbps avg
Субтитры: Отсутствуют

Подробные технические данные

GeneralComplete name : E:\1\мультики\Чужие окна 1985.aviFormat : AVIFormat/Info : Audio Video InterleaveFile size : 65.4 MiBDuration : 4mn 16sOverall bit rate : 2 138 KbpsWriting application : VirtualDubMod 1.5.10.3 | www.virtualdub-fr.org || (build 2550/release)Writing library : VirtualDubMod build 2550/release
VideoID : 0Format : MPEG-4 VisualFormat profile : Advanced Simple@L5Format settings, BVOP : 2Format settings, QPel : NoFormat settings, GMC : No warppointsFormat settings, Matrix : Default (H.263)Codec ID : XVIDCodec ID/Hint : XviDDuration : 4mn 16sBit rate : 2 000 KbpsWidth : 720 pixelsHeight : 544 pixelsDisplay aspect ratio : 4:3Frame rate : 25.000 fpsColor space : YUVChroma subsampling : 4:2:0Bit depth : 8 bitsScan type : ProgressiveCompression mode : LossyBits/(Pixel*Frame) : 0.204Stream size : 61.2 MiB (94%)Writing library : XviD 73
AudioID : 1Format : MPEG AudioFormat version : Version 1Format profile : Layer 3Codec ID : 55Codec ID/Hint : MP3Duration : 4mn 16sBit rate mode : ConstantBit rate : 128 KbpsChannel count : 2 channelsSampling rate : 48.0 KHzCompression mode : LossyStream size : 3.92 MiB (6%)Alignment : Aligned on interleavesInterleave, duration : 40 ms (1.00 video frame)Interleave, preload duration : 504 msWriting library : LAME3.99rEncoding settings : -m s -V 4 -q 2 -lowpass 17 -b 128

Скриншоты

[Профиль] [ЛС]
Кто просматривает тему:

Форум Тема Автор Размер
Фильмы 2015 года За чужие грехи (2015) HDTVRip достали все 1.37 GB
Фильмы 2015 года За чужие грехи (2015) SATRip достали все 1.27 GB
Фильмы (HD Rips | 720p, 1080p) За чужие грехи (Сергей Борчуков) [2015, Россия, мелодрама, HDTV 1080i] TorrentFilm 5.4 GB
Зарубежные сериалы Чужие / Пришельцы / The Aliens [S01] (2016) WEB-DL 1080p | Jaskier достали все 10.19 GB
Кино СССР Чужие здесь не ходят (Анатолий Вехотко, Роман Ершов) [1985, детектив, экранизация, TVRip] sergej644 4.53 GB
Фильмы 2011 года Чужие против Хищника: Реквием / Aliens vs Predator (Колин Штраус / Colin Strause, Грег Штраус / Greg Strause) [2007, Германия, США, Великобритания, Чехия, ужасы, фантастика, боевик, триллер,... TorrentFilm 3.13 GB
Фильмы (HD DVD, Blu-ray и BDRemux) Чужие против Хищника: Реквием / AVPR: Aliens vs Predator - Requiem (2007) Blu-ray CEE 1080p | D BOSS 37.46 GB
Фильмы 2011 года Чужие против Хищника: Реквием / AVPR: Aliens vs Predator - Requiem (Колин Штраус / Colin Strause, Грег Штраус / Greg Strause) [2007, США, Ужасы, фантастика, боевик, триллер, BDRip] [Расши... TorrentFilm 1.46 GB
Показать сообщения:    

Текущее время: Сегодня 09:58

Часовой пояс: GMT



Вы не можете начинать темы
Вы не можете отвечать на сообщения
Вы не можете редактировать свои сообщения
Вы не можете удалять свои сообщения
Вы не можете голосовать в опросах
Вы не можете прикреплять файлы к сообщениям
Вы не можете скачивать файлы