Чужие: Антология / Alien Anthology (Ридли Скотт / Ridley Scott, Джеймс Кэмерон / James Cameron, Дэвид Финчер / David Fincher, Жан-Пьер Жёне / Jean-Pierre Jeunet) [1979, 1986, 1992, 1997, США, боевик, BDRip 1080p] [Director's cut / Special Editio

 
Автор Сообщение

Russian Mafia ®

Пол:

Стаж: 1 год 8 месяцев

Сообщений: 4257



Награды: 10 (Подробнее)

Top Releaser 4 (Количество: 1) Mega Seeder 2 (Количество: 1) Mega Seeder 3 (Количество: 1)
Торрент-статистика

Создавать темы 19-Мар-2016 06:51

[Цитировать]

Чужой: Антология (Режиссёрская версия, Специальные издания)
Alien: Antology (Director’s cut, Special Edition)
- -Чужой / Alien«В космосе твой крик никто не услышит...»-Год выпуска: 1979
Страна: США, Великобритания
Жанр: ужасы, фантастика
Продолжительность: 01:55:49
Перевод 1: Профессиональный (полное дублирование)
Перевод 2: Профессиональный (многоголосый закадровый, LDV)
Перевод 3: Профессиональный (многоголосый закадровый, Киномания)
Перевод 4: Профессиональный (многоголосый закадровый, Позитив-Мультимедиа)
Перевод 5: Авторский (одноголосый закадровый, А.Гаврилов)
Перевод 6: Авторский (одноголосый закадровый, Дмитрий «Гоблин» Пучков)
Перевод 7: Авторский (одноголосый закадровый, Ю.Живов)
Субтитры: Русские, Английские-Режиссер: Ридли Скотт / Ridley Scott
Сценарий: Дэн О’Бэннон / Dan O'Bannon, Рональд Шусетт / Ronald Shusett
Продюсер: Гордон Кэрролл / Gordon Carroll, Дэвид Гайлер / David Giler, Уолтер Хилл / Walter Hill, Айвор Пауэлл / Ivor Powell, Рональд Шусетт / Ronald Shusett
Оператор: Дерек Ванлинт / Derek Vanlint
Композитор: Джерри Голдсмит / Jerry Goldsmith
В ролях: Сигурни Уивер (Ripley,), Том Скеррит (Dallas), Вероника Картрайт (Lambert), Гарри Дин Стэнтон (Brett), Джон Хёрт (Kane), Иэн Холм (Ash), Яфет Котто (Parker), Боладжи Бадеджо (Alien), Хелен Хортон (Mother, озвучка), Эдди Пауэлл (Alien, в титрах не указан)-Описание: В далеком будущем возвращающийся на Землю грузовой космический корабль перехватывает исходящий с неизвестной планеты неопознанный сигнал. Экипаж принимает решение совершить посадку и разобраться, в чем дело. Оказавшись на планете, астронавты повсюду обнаруживают неопознанные предметы, по виду напоминающие гигантские коконы…-
-Качество: Blu-ray Rip 1080p
Формат: MKV
Видео: MPEG-4 AVC (H264), 1920x818, 23.976 fps, High Profile 4.1, ~19000 kbps avg, bit/(pixel*frame) 0.505
Аудио №1: Russian: 48 kHz, DTS, 3/2 (L,C,R,l,r) + LFE ch, ~768.00 kbps avg Дубляж, Blu-ray CEE
Аудио №2: Russian: 48 kHz, DTS, 3/2 (L,C,R,l,r) + LFE ch, ~1536.00 kbps avg Многоголосый закадровый, LDV
Аудио №3: Russian: 48 kHz, AC3, 3/2 (L,C,R,l,r) + LFE ch, ~448.00 kbps avg Многоголосый закадровый, Киномания
Аудио №4: Russian: 48 kHz, AC3, 3/2 (L,C,R,l,r) + LFE ch, ~448.00 kbps avg Многоголосый закадровый, Позитив-Мультимедиа
Аудио №5: Russian: 48 kHz, DTS, 3/2 (L,C,R,l,r) + LFE ch, ~1536.00 kbps avg Одноголосый закадровый, А.Гаврилов
Аудио №6: Russian: 48 kHz, DTS, 3/2 (L,C,R,l,r) + LFE ch, ~1536.00 kbps avg Одноголосый закадровый, Дмитрий «Гоблин» Пучков
Аудио №7: Russian: 48 kHz, DTS, 3/2 (L,C,R,l,r) + LFE ch, ~1536.00 kbps avg Одноголосый закадровый, Ю.Живов
Аудио №8: English: 48 kHz, DTS, 3/2 (L,C,R,l,r) + LFE ch, ~1536.00 kbps avg Оригинал
Аудио №9: English: 48 kHz, AC3, 2/0 (L,R) ch, ~224.00 kbps avg Комментарии #1
Аудио №10: English: 48 kHz, AC3, 2/0 (L,R) ch, ~224.00 kbps avg Коммнтарии #2
Субтитры №1: Russian - (Blu-ray CEE)
Субтитры №2: Russian - (Киномания)
Субтитры №3: Russian - (расш. моменты - Гоблин)
Субтитры №4: English - original
Субтитры №5: Russian - (Комментарии #1)
Субтитры №6: Russian - (Комментарии #2)
Субтитры №7: English - (Комментарии #1)
Субтитры №8: English - (Комментарии #2)
Сохранены оригинальные чаптеры-

Скриншоты

Blu-Ray vs Rip vs [url=viewtopic.php?t=3268786]Этот Rip[/url]






MediaInfo

L:\movie HD VII\Aliens [Чужие]\Alien I [Чужой 1] Director's cut (1979) 1920x818 BDRip -=RbM=- RusEngSubsChpt.mkv
General
Unique ID : 234915213526110807524998939300206150795 (0xB0BB063FE0D9A14CB35AFD00C607048B)
Complete name : L:\movie HD VII\Aliens [Чужие]\Alien I [Чужой 1] Director's cut (1979) 1920x818 BDRip -=RbM=- RusEngSubsChpt.mkv
Format : Matroska
Format version : Version 2
File size : 23.6 GiB
Duration : 1h 55mn
Overall bit rate : 29.2 Mbps
Movie name : -=RbM=-
Encoded date : UTC 2012-09-15 06:01:26
Writing application : mkvmerge v5.8.0 ('No Sleep / Pillow') built on Sep 2 2012 15:37:04
Writing library : libebml v1.2.3 + libmatroska v1.3.0
Video #1
ID : 1
Format : AVC
Format/Info : Advanced Video Codec
Format profile : High@L4.1
Format settings, CABAC : Yes
Format settings, ReFrames : 5 frames
Codec ID : V_MPEG4/ISO/AVC
Bit rate : 19.0 Mbps
Width : 1 920 pixels
Height : 818 pixels
Display aspect ratio : 2.35:1
Frame rate mode : Variable
Original frame rate : 23.976 fps
Color space : YUV
Chroma subsampling : 4:2:0
Bit depth : 8 bits
Scan type : Progressive
Title : 60% of the original
Writing library : x264 core 125 r2208kMod d9d2288
Encoding settings : cabac=1 / ref=5 / deblock=1:-3:-2 / analyse=0x3:0x133 / me=umh / subme=11 / psy=1 / fade_compensate=0.00 / psy_rd=1.15:0.25 / mixed_ref=1 / me_range=48 / chroma_me=1 / trellis=2 / 8x8dct=1 / cqm=0 / deadzone=21,11 / fast_pskip=0 / chroma_qp_offset=-4 / threads=12 / lookahead_threads=2 / sliced_threads=0 / nr=0 / decimate=1 / interlaced=0 / bluray_compat=0 / constrained_intra=0 / bframes=16 / b_pyramid=2 / b_adapt=2 / b_bias=0 / direct=3 / weightb=1 / open_gop=0 / weightp=2 / keyint=240 / keyint_min=23 / scenecut=40 / intra_refresh=0 / rc=crf / mbtree=0 / crf=18.0000 / qcomp=0.70 / qpmin=0 / qpmax=69 / qpstep=4 / ip_ratio=1.30 / pb_ratio=1.20 / aq=3:0.80
Language : English
Default : Yes
Forced : No
Color primaries : BT.709
Transfer characteristics : BT.709
Matrix coefficients : BT.709
Audio #2
ID : 2
Format : DTS
Format/Info : Digital Theater Systems
Codec ID : A_DTS
Duration : 1h 55mn
Bit rate mode : Constant
Bit rate : 755 Kbps
Channel(s) : 6 channels
Channel positions : Front: L C R, Side: L R, LFE
Sampling rate : 48.0 KHz
Bit depth : 24 bits
Compression mode : Lossy
Stream size : 625 MiB (3%)
Title : Dub DTS 6ch 755kbps
Language : Russian
Default : Yes
Forced : No
Audio #3
ID : 3
Format : DTS
Format/Info : Digital Theater Systems
Codec ID : A_DTS
Duration : 1h 55mn
Bit rate mode : Constant
Bit rate : 1 510 Kbps
Channel(s) : 6 channels
Channel positions : Front: L C R, Side: L R, LFE
Sampling rate : 48.0 KHz
Bit depth : 24 bits
Compression mode : Lossy
Stream size : 1.22 GiB (5%)
Title : MVO DTS 6ch 1510kbps (LDV)
Language : Russian
Default : No
Forced : No
Audio #4
ID : 4
Format : AC-3
Format/Info : Audio Coding 3
Mode extension : CM (complete main)
Format settings, Endianness : Big
Codec ID : A_AC3
Duration : 1h 55mn
Bit rate mode : Constant
Bit rate : 448 Kbps
Channel(s) : 6 channels
Channel positions : Front: L C R, Side: L R, LFE
Sampling rate : 48.0 KHz
Bit depth : 16 bits
Compression mode : Lossy
Stream size : 371 MiB (2%)
Title : MVO AC3 6ch 448kbps (Киномания)
Language : Russian
Default : No
Forced : No
Audio #5
ID : 5
Format : AC-3
Format/Info : Audio Coding 3
Mode extension : CM (complete main)
Format settings, Endianness : Big
Codec ID : A_AC3
Duration : 1h 55mn
Bit rate mode : Constant
Bit rate : 448 Kbps
Channel(s) : 6 channels
Channel positions : Front: L C R, Side: L R, LFE
Sampling rate : 48.0 KHz
Bit depth : 16 bits
Compression mode : Lossy
Stream size : 371 MiB (2%)
Title : MVO AC3 6ch 448kbps (Позитив-Мультимедиа)
Language : Russian
Default : No
Forced : No
Audio #6
ID : 6
Format : DTS
Format/Info : Digital Theater Systems
Codec ID : A_DTS
Duration : 1h 55mn
Bit rate mode : Constant
Bit rate : 1 510 Kbps
Channel(s) : 6 channels
Channel positions : Front: L C R, Side: L R, LFE
Sampling rate : 48.0 KHz
Bit depth : 24 bits
Compression mode : Lossy
Stream size : 1.22 GiB (5%)
Title : AVO DTS 6ch 1510kbps (А.Гаврилов)
Language : Russian
Default : No
Forced : No
Audio #7
ID : 7
Format : DTS
Format/Info : Digital Theater Systems
Codec ID : A_DTS
Duration : 1h 55mn
Bit rate mode : Constant
Bit rate : 1 510 Kbps
Channel(s) : 6 channels
Channel positions : Front: L C R, Side: L R, LFE
Sampling rate : 48.0 KHz
Bit depth : 24 bits
Compression mode : Lossy
Stream size : 1.22 GiB (5%)
Title : AVO DTS 6ch 1510kbps (Дмитрий «Гоблин» Пучков)
Language : Russian
Default : No
Forced : No
Audio #8
ID : 8
Format : DTS
Format/Info : Digital Theater Systems
Codec ID : A_DTS
Duration : 1h 55mn
Bit rate mode : Constant
Bit rate : 1 510 Kbps
Channel(s) : 6 channels
Channel positions : Front: L C R, Side: L R, LFE
Sampling rate : 48.0 KHz
Bit depth : 24 bits
Compression mode : Lossy
Stream size : 1.22 GiB (5%)
Title : AVO DTS 6ch 1510kbps (Ю.Живов)
Language : Russian
Default : No
Forced : No
Audio #9
ID : 9
Format : DTS
Format/Info : Digital Theater Systems
Codec ID : A_DTS
Duration : 1h 55mn
Bit rate mode : Constant
Bit rate : 1 510 Kbps
Channel(s) : 6 channels
Channel positions : Front: L C R, Side: L R, LFE
Sampling rate : 48.0 KHz
Bit depth : 24 bits
Compression mode : Lossy
Stream size : 1.22 GiB (5%)
Title : Original DTS 6ch 1510kbps
Language : English
Default : No
Forced : No
Audio #10
ID : 10
Format : AC-3
Format/Info : Audio Coding 3
Mode extension : CM (complete main)
Format settings, Endianness : Big
Codec ID : A_AC3
Duration : 1h 55mn
Bit rate mode : Constant
Bit rate : 224 Kbps
Channel(s) : 2 channels
Channel positions : Front: L R
Sampling rate : 48.0 KHz
Bit depth : 16 bits
Compression mode : Lossy
Stream size : 186 MiB (1%)
Title : AC3 2ch 224kbps (commentary #1)
Language : English
Default : No
Forced : No
Audio #11
ID : 11
Format : AC-3
Format/Info : Audio Coding 3
Mode extension : CM (complete main)
Format settings, Endianness : Big
Codec ID : A_AC3
Duration : 1h 55mn
Bit rate mode : Constant
Bit rate : 224 Kbps
Channel(s) : 2 channels
Channel positions : Front: L R
Sampling rate : 48.0 KHz
Bit depth : 16 bits
Compression mode : Lossy
Stream size : 186 MiB (1%)
Title : AC3 2ch 224kbps (commentary #2)
Language : English
Default : No
Forced : No
Text #12
ID : 12
Format : UTF-8
Codec ID : S_TEXT/UTF8
Codec ID/Info : UTF-8 Plain Text
Title : CEE
Language : Russian
Default : No
Forced : No
Text #13
ID : 13
Format : UTF-8
Codec ID : S_TEXT/UTF8
Codec ID/Info : UTF-8 Plain Text
Title : Киномания
Language : Russian
Default : No
Forced : No
Text #14
ID : 14
Format : UTF-8
Codec ID : S_TEXT/UTF8
Codec ID/Info : UTF-8 Plain Text
Title : Гоблин
Language : Russian
Default : No
Forced : No
Text #15
ID : 15
Format : UTF-8
Codec ID : S_TEXT/UTF8
Codec ID/Info : UTF-8 Plain Text
Language : English
Default : No
Forced : No
Text #16
ID : 16
Format : UTF-8
Codec ID : S_TEXT/UTF8
Codec ID/Info : UTF-8 Plain Text
Title : комментарии #1
Language : Russian
Default : No
Forced : No
Text #17
ID : 17
Format : UTF-8
Codec ID : S_TEXT/UTF8
Codec ID/Info : UTF-8 Plain Text
Title : комментарии #2
Language : Russian
Default : No
Forced : No
Text #18
ID : 18
Format : UTF-8
Codec ID : S_TEXT/UTF8
Codec ID/Info : UTF-8 Plain Text
Title : commentary #1
Language : English
Default : No
Forced : No
Text #19
ID : 19
Format : UTF-8
Codec ID : S_TEXT/UTF8
Codec ID/Info : UTF-8 Plain Text
Title : commentary #2
Language : English
Default : No
Forced : No
Menu
00:00:00.000 : en:00:00:00.000
00:02:01.121 : en:00:02:01.121
00:04:40.155 : en:00:04:40.155
00:07:55.850 : en:00:07:55.850
00:09:10.508 : en:00:09:10.508
00:12:40.426 : en:00:12:40.426
00:14:16.105 : en:00:14:16.105
00:20:05.913 : en:00:20:05.913
00:23:22.651 : en:00:23:22.651
00:25:05.254 : en:00:25:05.254
00:27:50.877 : en:00:27:50.877
00:31:51.826 : en:00:31:51.826
00:35:32.922 : en:00:35:32.922
00:37:04.347 : en:00:37:04.347
00:40:33.890 : en:00:40:33.890
00:43:26.520 : en:00:43:26.520
00:47:28.304 : en:00:47:28.304
00:50:06.128 : en:00:50:06.128
00:51:44.309 : en:00:51:44.309
00:54:24.678 : en:00:54:24.678
00:59:01.746 : en:00:59:01.746
01:00:26.873 : en:01:00:26.873
01:03:36.312 : en:01:03:36.312
01:08:18.719 : en:01:08:18.719
01:10:04.951 : en:01:10:04.951
01:12:52.409 : en:01:12:52.409
01:14:33.928 : en:01:14:33.928
01:17:14.713 : en:01:17:14.713
01:19:02.905 : en:01:19:02.905
01:22:34.282 : en:01:22:34.282
01:26:39.235 : en:01:26:39.235
01:28:49.574 : en:01:28:49.574
01:30:48.735 : en:01:30:48.735
01:32:39.762 : en:01:32:39.762
01:34:23.783 : en:01:34:23.783
01:37:45.151 : en:01:37:45.151
01:39:14.448 : en:01:39:14.448
01:43:28.243 : en:01:43:28.243
01:46:17.955 : en:01:46:17.955
01:53:05.612 : en:01:53:05.612

x264 2-nd pass log

x264 [info]: frame I:982 Avg QP:14.37 size:198341 PSNR Mean Y:49.70 U:53.98 V:54.00 Avg:50.69 Global:49.96
x264 [info]: frame P:33254 Avg QP:15.19 size:146258 PSNR Mean Y:48.66 U:52.87 V:52.94 Avg:49.64 Global:48.76
x264 [info]: frame B:132395 Avg QP:16.90 size: 89917 PSNR Mean Y:46.92 U:51.23 V:51.36 Avg:47.92 Global:47.03
x264 [info]: consecutive B-frames: 2.6% 2.2% 4.9% 12.5% 13.6% 37.8% 9.3% 3.8% 3.6% 4.2% 2.0% 1.3% 0.8% 0.7% 0.3% 0.2% 0.3%
x264 [info]: mb I I16..4: 13.6% 74.6% 11.8%
x264 [info]: mb P I16..4: 7.8% 50.4% 4.5% P16..4: 11.6% 14.2% 5.8% 1.7% 0.2% skip: 3.9%
x264 [info]: mb B I16..4: 4.3% 19.1% 1.2% B16..8: 23.9% 19.6% 4.1% direct:13.2% skip:14.6% L0:38.4% L1:32.0% BI:29.6%
x264 [info]: 8x8 transform intra:78.6% inter:33.1%
x264 [info]: direct mvs spatial:100.0% temporal:0.0%
x264 [info]: coded y,uvDC,uvAC intra: 87.0% 95.1% 90.2% inter: 45.6% 53.0% 20.5%
x264 [info]: i16 v,h,dc,p: 31% 3% 18% 47%
x264 [info]: i8 v,h,dc,ddl,ddr,vr,hd,vl,hu: 11% 11% 28% 7% 7% 7% 8% 9% 11%
x264 [info]: i4 v,h,dc,ddl,ddr,vr,hd,vl,hu: 22% 9% 15% 7% 10% 9% 10% 8% 10%
x264 [info]: i8c dc,h,v,p: 59% 17% 15% 9%
x264 [info]: Weighted P-Frames: Y:20.8% UV:14.7%
x264 [info]: ref P L0: 41.7% 6.7% 26.4% 11.9% 10.9% 2.0% 0.3%
x264 [info]: ref B L0: 73.9% 19.5% 5.3% 1.2%
x264 [info]: ref B L1: 90.9% 9.1%
x264 [info]: SSIM Mean Y:0.9857617 (18.465db)
x264 [info]: PSNR Mean Y:47.286 U:51.577 V:51.695 Avg:48.277 Global:47.339 kb/s:19525.97
x264 [info]: encoded 166631 frames, 3.15 fps, 19525.97 kb/s, duration 14:40:28.66
-Чужие / Aliens«В некоторых местах Вселенной вы не одиноки...»-Год выпуска: 1986
Страна: США, Великобритания
Жанр: фантастика, боевик, триллер
Продолжительность: 02:34:26
Перевод 1: Профессиональный (полное дублирование)
Перевод 2: Профессиональный (многоголосый закадровый, LDV)
Перевод 3: Профессиональный (многоголосый закадровый, Киномания)
Перевод 4: Профессиональный (многоголосый закадровый, Позитив-Мультимедиа)
Перевод 5: Профессиональный (многоголосый закадровый, Супербит)
Перевод 6: Авторский (одноголосый закадровый, А.Гаврилов)
Перевод 7: Авторский (одноголосый закадровый, Дмитрий «Гоблин» Пучков)
Перевод 8: Авторский (одноголосый закадровый, В.Горчаков)
Перевод 9: Авторский (одноголосый закадровый, А.Кашкин)
Перевод 10: Авторский (одноголосый закадровый, А.Марченко)
Субтитры :Русские, Английские-Режиссер: Джеймс Кэмерон / James Cameron
Сценарий: Дэн О’Бэннон / Dan O'Bannon, Рональд Шусетт / Ronald Shusett, Джеймс Кэмерон / James Cameron, Дэвид Гайлер / David Giler, Уолтер Хилл / Walter Hill
Продюсер: Гордон Кэрролл / Gordon Carroll, Дэвид Гайлер / David Giler, Уолтер Хилл / Walter Hill, Гэйл Энн Херд / Gale Anne Hurd
Оператор: Эдриан Биддл / Adrian Biddle
Композитор: Джеймс Хорнер / James Horner
В ролях: Сигурни Уивер (Ellen Ripley,), Кэрри Хенн (Rebecca 'Newt' Jorden), Майкл Бьен (Cpl. Dwayne Hicks), Лэнс Хенриксен (Bishop), Пол Райзер (Carter Burke), Билл Пэкстон (Pvt. Hudson), Уильям Хоуп (Lt. Gorman), Дженетт Голдстин (Pvt. Vasquez), Эл Мэтьюз (Sgt. Apone), Марк Ролстон (Pvt. Drake), Рикко Росс (Pvt. Frost), Колетт Хиллер (Cpl. Ferro)-Описание: Чужой - совершенный организм. Идеальная машина для убийства, чье физическое превосходство сочетается с его феноменальной жаждой уничтожения. Офицер Элен Рипли и команда космического корабля Ностромо один раз уже встретилась с такой тварью. В живых осталась только Элен.
Капсула с Элен найдена спасателями после многих лет блуждания в космосе. Ей сообщают, что планета L.V. 426 колонизирована, и ей придется вернуться туда, где начался ее кошмар, ибо связь с колонистами прервалась. И вот в составе группы космического десанта Рипли отправляется на проклятую планету. Но теперь их там поджидает не один Чужой, а тысячи. Кто сможет выжить в этой войне: чудовища, способные только убивать, или люди, способные мыслить?-
-Качество: Blu-ray Rip 1080p
Формат: MKV
Видео: MPEG-4 AVC (H264), 1920x1038, 23.976 fps, High Profile 4.1, ~22200 kbps avg, bit/(pixel*frame) 0. 465
Аудио №1: 48 kHz, DTS, 3/2 (L,C,R,l,r) + LFE ch, ~768.00 kbps avg Дубляж, Blu-ray CEE
Аудио №2: 48 kHz, DTS, 3/2 (L,C,R,l,r) + LFE ch, ~1536.00 kbps avg Многоголосый закадровый, LDV
Аудио №3: 48 kHz, AC3, 3/2 (L,C,R,l,r) + LFE ch, ~448.00 kbps avg Многоголосый закадровый, Киномания
Аудио №4: 48 kHz, AC3, 3/2 (L,C,R,l,r) + LFE ch, ~448.00 kbps avg Многоголосый закадровый, Позитив-Мультимедиа
Аудио №5: 48 kHz, DTS, 3/2 (L,C,R,l,r) + LFE ch, ~768.00 kbps avg Многоголосый закадровый, Супербит
Аудио №6: 48 kHz, DTS, 3/2 (L,C,R,l,r) + LFE ch, ~1536.00 kbps avg Одноголосый закадровый, А.Гаврилов
Аудио №7: 48 kHz, DTS, 3/2 (L,C,R,l,r) + LFE ch, ~1536.00 kbps avg Одноголосый закадровый, Дмитрий «Гоблин» Пучков
Аудио №8: 48 kHz, DTS, 3/2 (L,C,R,l,r) + LFE ch, ~1536.00 kbps avg Одноголосый закадровый, В.Горчаков
Аудио №9: 48 kHz, DTS, 3/2 (L,C,R,l,r) + LFE ch, ~1536.00 kbps avg Одноголосый закадровый, А.Кашкин
Аудио №10: 48 kHz, AC3, 3/2 (L,C,R,l,r) + LFE ch, ~448.00 kbps avg Одноголосый закадровый, А.Марченко
Аудио №11: 48 kHz, DTS, 3/2 (L,C,R,l,r) + LFE ch, ~1536.00 kbps avg Оригинал
Аудио №12: 48 kHz, AC3, 2/0 (L,R) ch, ~224.00 kbps avg Комментарии
Субтитры №1: Russian - (Blu-ray CEE)
Субтитры №2: Russian - (Киномания)
Субтитры №3: English - original
Субтитры №4: Russian - (Комментарии)
Субтитры №5: English - (Комментарии)

Сохранены оригинальные чаптеры-

Скриншоты

Blu-Ray vs Rip vs [url=viewtopic.php?t=3268786]Этот Rip[/url]






MediaInfo

L:\movie HD VII\Aliens [Чужие]\Alien II - Aliens [Чужой 2] Special Edition (1986) 1920x1038 BDRip -=RbM=- RusEngSubsChpt.mkv
General
Unique ID : 175504281546303858514305988328929888934 (0x8408E526928EA8228F8A818E6D500AA6)
Complete name : L:\movie HD VII\Aliens [Чужие]\Alien II - Aliens [Чужой 2] Special Edition (1986) 1920x1038 BDRip -=RbM=- RusEngSubsChpt.mkv
Format : Matroska
Format version : Version 2
File size : 37.8 GiB
Duration : 2h 34mn
Overall bit rate : 35.0 Mbps
Movie name : -=RbM=-
Encoded date : UTC 2012-09-16 03:52:53
Writing application : mkvmerge v5.8.0 ('No Sleep / Pillow') built on Sep 2 2012 15:37:04
Writing library : libebml v1.2.3 + libmatroska v1.3.0
Video #1
ID : 1
Format : AVC
Format/Info : Advanced Video Codec
Format profile : High@L4.1
Format settings, CABAC : Yes
Format settings, ReFrames : 4 frames
Codec ID : V_MPEG4/ISO/AVC
Bit rate : 22.2 Mbps
Width : 1 920 pixels
Height : 1 038 pixels
Display aspect ratio : 1.85:1
Frame rate mode : Variable
Original frame rate : 23.976 fps
Color space : YUV
Chroma subsampling : 4:2:0
Bit depth : 8 bits
Scan type : Progressive
Title : 64% of the original
Writing library : x264 core 125 r2208kMod d9d2288
Encoding settings : cabac=1 / ref=4 / deblock=1:-3:-2 / analyse=0x3:0x133 / me=umh / subme=11 / psy=1 / fade_compensate=0.00 / psy_rd=0.80:0.00 / mixed_ref=1 / me_range=48 / chroma_me=1 / trellis=2 / 8x8dct=1 / cqm=0 / deadzone=21,11 / fast_pskip=0 / chroma_qp_offset=-2 / threads=12 / lookahead_threads=2 / sliced_threads=0 / nr=0 / decimate=1 / interlaced=0 / bluray_compat=0 / constrained_intra=0 / bframes=14 / b_pyramid=2 / b_adapt=2 / b_bias=0 / direct=3 / weightb=1 / open_gop=0 / weightp=2 / keyint=240 / keyint_min=23 / scenecut=40 / intra_refresh=0 / rc=crf / mbtree=0 / crf=21.6000 / qcomp=0.70 / qpmin=0 / qpmax=69 / qpstep=4 / ip_ratio=1.40 / pb_ratio=1.30 / aq=3:1.00
Language : English
Default : Yes
Forced : No
Color primaries : BT.709
Transfer characteristics : BT.709
Matrix coefficients : BT.709
Audio #2
ID : 2
Format : DTS
Format/Info : Digital Theater Systems
Codec ID : A_DTS
Duration : 2h 34mn
Bit rate mode : Constant
Bit rate : 755 Kbps
Channel(s) : 6 channels
Channel positions : Front: L C R, Side: L R, LFE
Sampling rate : 48.0 KHz
Bit depth : 24 bits
Compression mode : Lossy
Stream size : 834 MiB (2%)
Title : Dub DTS 6ch 755kbps
Language : Russian
Default : Yes
Forced : No
Audio #3
ID : 3
Format : DTS
Format/Info : Digital Theater Systems
Codec ID : A_DTS
Duration : 2h 34mn
Bit rate mode : Constant
Bit rate : 1 510 Kbps
Channel(s) : 6 channels
Channel positions : Front: L C R, Side: L R, LFE
Sampling rate : 48.0 KHz
Bit depth : 24 bits
Compression mode : Lossy
Stream size : 1.63 GiB (4%)
Title : MVO DTS 6ch 1510kbps (LDV)
Language : Russian
Default : No
Forced : No
Audio #4
ID : 4
Format : AC-3
Format/Info : Audio Coding 3
Mode extension : CM (complete main)
Format settings, Endianness : Big
Codec ID : A_AC3
Duration : 2h 34mn
Bit rate mode : Constant
Bit rate : 448 Kbps
Channel(s) : 6 channels
Channel positions : Front: L C R, Side: L R, LFE
Sampling rate : 48.0 KHz
Bit depth : 16 bits
Compression mode : Lossy
Stream size : 495 MiB (1%)
Title : MVO AC3 6ch 448kbps (Киномания)
Language : Russian
Default : No
Forced : No
Audio #5
ID : 5
Format : AC-3
Format/Info : Audio Coding 3
Mode extension : CM (complete main)
Format settings, Endianness : Big
Codec ID : A_AC3
Duration : 2h 34mn
Bit rate mode : Constant
Bit rate : 448 Kbps
Channel(s) : 6 channels
Channel positions : Front: L C R, Side: L R, LFE
Sampling rate : 48.0 KHz
Bit depth : 16 bits
Compression mode : Lossy
Stream size : 495 MiB (1%)
Title : MVO AC3 6ch 448kbps (Позитив-Мультимедиа)
Language : Russian
Default : No
Forced : No
Audio #6
ID : 6
Format : DTS
Format/Info : Digital Theater Systems
Codec ID : A_DTS
Duration : 2h 34mn
Bit rate mode : Constant
Bit rate : 755 Kbps
Channel(s) : 6 channels
Channel positions : Front: L C R, Side: L R, LFE
Sampling rate : 48.0 KHz
Bit depth : 24 bits
Compression mode : Lossy
Stream size : 834 MiB (2%)
Title : MVO DTS 6ch 755kbps (Супербит)
Language : Russian
Default : No
Forced : No
Audio #7
ID : 7
Format : DTS
Format/Info : Digital Theater Systems
Codec ID : A_DTS
Duration : 2h 34mn
Bit rate mode : Constant
Bit rate : 1 510 Kbps
Channel(s) : 6 channels
Channel positions : Front: L C R, Side: L R, LFE
Sampling rate : 48.0 KHz
Bit depth : 24 bits
Compression mode : Lossy
Stream size : 1.63 GiB (4%)
Title : AVO DTS 6ch 1510kbps (А.Гаврилов)
Language : Russian
Default : No
Forced : No
Audio #8
ID : 8
Format : DTS
Format/Info : Digital Theater Systems
Codec ID : A_DTS
Duration : 2h 34mn
Bit rate mode : Constant
Bit rate : 1 510 Kbps
Channel(s) : 6 channels
Channel positions : Front: L C R, Side: L R, LFE
Sampling rate : 48.0 KHz
Bit depth : 24 bits
Compression mode : Lossy
Stream size : 1.63 GiB (4%)
Title : AVO DTS 6ch 1510kbps (Дмитрий «Гоблин» Пучков)
Language : Russian
Default : No
Forced : No
Audio #9
ID : 9
Format : DTS
Format/Info : Digital Theater Systems
Codec ID : A_DTS
Duration : 2h 34mn
Bit rate mode : Constant
Bit rate : 1 510 Kbps
Channel(s) : 6 channels
Channel positions : Front: L C R, Side: L R, LFE
Sampling rate : 48.0 KHz
Bit depth : 24 bits
Compression mode : Lossy
Stream size : 1.63 GiB (4%)
Title : AVO DTS 6ch 1510kbps (В.Горчаков)
Language : Russian
Default : No
Forced : No
Audio #10
ID : 10
Format : DTS
Format/Info : Digital Theater Systems
Codec ID : A_DTS
Duration : 2h 34mn
Bit rate mode : Constant
Bit rate : 1 510 Kbps
Channel(s) : 6 channels
Channel positions : Front: L C R, Side: L R, LFE
Sampling rate : 48.0 KHz
Bit depth : 24 bits
Compression mode : Lossy
Stream size : 1.63 GiB (4%)
Title : AVO DTS 6ch 1510kbps (А.Кашкин)
Language : Russian
Default : No
Forced : No
Audio #11
ID : 11
Format : AC-3
Format/Info : Audio Coding 3
Mode extension : CM (complete main)
Format settings, Endianness : Big
Codec ID : A_AC3
Duration : 2h 34mn
Bit rate mode : Constant
Bit rate : 448 Kbps
Channel(s) : 6 channels
Channel positions : Front: L C R, Side: L R, LFE
Sampling rate : 48.0 KHz
Bit depth : 16 bits
Compression mode : Lossy
Stream size : 495 MiB (1%)
Title : AVO AC3 6ch 448kbps (А.Марченко)
Language : Russian
Default : No
Forced : No
Audio #12
ID : 12
Format : DTS
Format/Info : Digital Theater Systems
Codec ID : A_DTS
Duration : 2h 34mn
Bit rate mode : Constant
Bit rate : 1 510 Kbps
Channel(s) : 6 channels
Channel positions : Front: L C R, Side: L R, LFE
Sampling rate : 48.0 KHz
Bit depth : 24 bits
Compression mode : Lossy
Stream size : 1.63 GiB (4%)
Title : Original DTS 6ch 1510kbps
Language : English
Default : No
Forced : No
Audio #13
ID : 13
Format : AC-3
Format/Info : Audio Coding 3
Mode extension : CM (complete main)
Format settings, Endianness : Big
Codec ID : A_AC3
Duration : 2h 34mn
Bit rate mode : Constant
Bit rate : 224 Kbps
Channel(s) : 2 channels
Channel positions : Front: L R
Sampling rate : 48.0 KHz
Bit depth : 16 bits
Compression mode : Lossy
Stream size : 247 MiB (1%)
Title : AC3 2ch 224kbps (commentary)
Language : English
Default : No
Forced : No
Text #14
ID : 14
Format : UTF-8
Codec ID : S_TEXT/UTF8
Codec ID/Info : UTF-8 Plain Text
Title : CEE
Language : Russian
Default : No
Forced : No
Text #15
ID : 15
Format : UTF-8
Codec ID : S_TEXT/UTF8
Codec ID/Info : UTF-8 Plain Text
Title : Киномания
Language : Russian
Default : No
Forced : No
Text #16
ID : 16
Format : UTF-8
Codec ID : S_TEXT/UTF8
Codec ID/Info : UTF-8 Plain Text
Language : English
Default : No
Forced : No
Text #17
ID : 17
Format : UTF-8
Codec ID : S_TEXT/UTF8
Codec ID/Info : UTF-8 Plain Text
Title : комментарии
Language : Russian
Default : No
Forced : No
Text #18
ID : 18
Format : UTF-8
Codec ID : S_TEXT/UTF8
Codec ID/Info : UTF-8 Plain Text
Title : commentary
Language : English
Default : No
Forced : No
Menu
00:00:00.000 : en:00:00:00.000
00:02:06.752 : en:00:02:06.752
00:05:15.732 : en:00:05:15.732
00:08:34.347 : en:00:08:34.347
00:10:52.110 : en:00:10:52.110
00:15:13.621 : en:00:15:13.621
00:17:25.002 : en:00:17:25.002
00:20:54.128 : en:00:20:54.128
00:25:02.501 : en:00:25:02.501
00:25:57.473 : en:00:25:57.473
00:30:03.718 : en:00:30:03.718
00:32:53.888 : en:00:32:53.888
00:35:56.863 : en:00:35:56.863
00:38:03.531 : en:00:38:03.531
00:45:40.071 : en:00:45:40.071
00:52:28.520 : en:00:52:28.520
00:54:48.076 : en:00:54:48.076
00:56:09.116 : en:00:56:09.116
01:00:11.107 : en:01:00:11.107
01:04:47.508 : en:01:04:47.508
01:10:10.998 : en:01:10:10.998
01:12:51.992 : en:01:12:51.992
01:16:22.870 : en:01:16:22.870
01:21:22.252 : en:01:21:22.252
01:23:17.200 : en:01:23:17.200
01:26:21.134 : en:01:26:21.134
01:31:22.060 : en:01:31:22.060
01:34:37.422 : en:01:34:37.422
01:37:25.256 : en:01:37:25.256
01:38:40.706 : en:01:38:40.706
01:41:23.244 : en:01:41:23.244
01:45:03.464 : en:01:45:03.464
01:47:15.554 : en:01:47:15.554
01:51:41.403 : en:01:51:41.403
01:52:58.605 : en:01:52:58.605
02:02:10.364 : en:02:02:10.364
02:05:54.046 : en:02:05:54.046
02:07:41.987 : en:02:07:41.987
02:13:15.529 : en:02:13:15.529
02:17:29.616 : en:02:17:29.616
02:22:24.703 : en:02:22:24.703
02:23:16.713 : en:02:23:16.713
02:30:16.007 : en:02:30:16.007
02:31:36.462 : en:02:31:36.462

x264 2-nd pass log

x264 [info]: frame I:1081 Avg QP:19.90 size:239344 PSNR Mean Y:43.82 U:48.23 V:48.75 Avg:44.84 Global:44.21
x264 [info]: frame P:48459 Avg QP:21.08 size:180884 PSNR Mean Y:42.56 U:46.94 V:47.64 Avg:43.58 Global:42.97
x264 [info]: frame B:172645 Avg QP:23.47 size:101245 PSNR Mean Y:40.49 U:45.65 V:46.47 Avg:41.64 Global:40.96
x264 [info]: consecutive B-frames: 2.8% 2.3% 5.5% 17.2% 16.7% 46.2% 5.0% 1.2% 1.2% 1.1% 0.2% 0.1% 0.1% 0.3% 0.2%
x264 [info]: mb I I16..4: 2.5% 95.0% 2.4%
x264 [info]: mb P I16..4: 0.3% 55.0% 0.7% P16..4: 14.4% 19.9% 7.1% 0.5% 0.0% skip: 2.1%
x264 [info]: mb B I16..4: 0.0% 9.3% 0.1% B16..8: 43.8% 25.2% 6.0% direct: 7.5% skip: 8.1% L0:47.3% L1:42.0% BI:10.8%
x264 [info]: 8x8 transform intra:98.4% inter:69.1%
x264 [info]: direct mvs spatial:100.0% temporal:0.0%
x264 [info]: coded y,uvDC,uvAC intra: 98.9% 95.0% 70.8% inter: 68.2% 63.5% 4.3%
x264 [info]: i16 v,h,dc,p: 54% 11% 6% 29%
x264 [info]: i8 v,h,dc,ddl,ddr,vr,hd,vl,hu: 6% 5% 11% 13% 15% 13% 13% 12% 12%
x264 [info]: i4 v,h,dc,ddl,ddr,vr,hd,vl,hu: 6% 4% 5% 11% 17% 16% 16% 12% 13%
x264 [info]: i8c dc,h,v,p: 51% 18% 16% 14%
x264 [info]: Weighted P-Frames: Y:28.7% UV:22.3%
x264 [info]: ref P L0: 44.6% 9.8% 28.0% 14.4% 2.8% 0.5%
x264 [info]: ref B L0: 84.6% 12.2% 3.3%
x264 [info]: ref B L1: 90.7% 9.3%
x264 [info]: SSIM Mean Y:0.9398940 (12.211db)
x264 [info]: PSNR Mean Y:40.961 U:45.945 V:46.736 Avg:42.076 Global:41.338 kb/s:22880.04
x264 [info]: encoded 222185 frames, 2.46 fps, 22880.04 kb/s, duration 25:03:05.24
-Чужой 3 / Alien³«Снова началось...»-Год выпуска: 1992
Страна: США
Жанр: ужасы, фантастика, боевик, триллер
Продолжительность: 02:24:52
Перевод 1: Профессиональный (полное дублирование)
Перевод 2: Профессиональный (многоголосый закадровый, LDV)
Перевод 3: Профессиональный (многоголосый закадровый, Киномания)
Перевод 4: Профессиональный (многоголосый закадровый, Позитив-Мультимедиа)
Перевод 5: Профессиональный (многоголосый закадровый, Супербит)
Перевод 6: Авторский (одноголосый закадровый, А.Гаврилов)
Перевод 7: Авторский (одноголосый закадровый, Дмитрий «Гоблин» Пучков)
Перевод 8: Авторский (одноголосый закадровый, Ю.Живов)
Субтитры: Русские, Английские-Режиссер: Дэвид Финчер / David Fincher
Сценарий: Дэн О’Бэннон / Dan O'Bannon, Рональд Шусетт / Ronald Shusett, Винсент Уорд / Vincent Ward, Дэвид Гайлер / David Giler, Уолтер Хилл / Walter Hill
Продюсер: Гордон Кэрролл / Gordon Carroll, Дэвид Гайлер / David Giler, Уолтер Хилл / Walter Hill, Эзра Свердлоу / Ezra Swerdlow, Сигурни Уивер / Sigourney Weaver
Оператор: Алекс Томсон / Alex Thomson
Композитор: Эллиот Голденталь / Elliot Goldenthal
В ролях: Сигурни Уивер (Ellen Ripley,), Чарльз С. Даттон (Dillon), Чарльз Дэнс (Clemens), Пол МакГэнн (Golic), Брайан Гловер (Andrews), Ральф Браун (Aaron), Дэниэл Уэбб (Morse), Кристофер Джон Филдс (Rains), Холт МакКэллани (Junior), Лэнс Хенриксен (Bishop II), Кристофер Фэйрбэнк (Murphy), Карл Чейз (Frank)-Описание: После бегства с планеты «Чужих» космический корабль Рипли терпит катастрофу вблизи так называемой планеты - тюрьмы, места, где отсиживают свой срок убийцы, насильники и прочие отбросы общества. Вместе с Рипли на эту планету попадает зародыш чужого, который и был причиной гибели корабля. Довольно быстро он превращается в гигантскую, зубастую тварь и начинает свое темное дело.
Его жертвами становятся десятки безоружных заключенных. Кровь брызжет фонтаном, куски человеческого мяса разлетаются во все стороны. И кажется, что остановить эту машину смерти не сможет никто, никто кроме отважной, но увы не бессмертной девушки по имени Рипли.-
-Качество: Blu-ray Rip 1080p
Формат: MKV
Видео: MPEG-4 AVC (H264), 1920x810, 23.976 fps, High Profile 4.1, ~13300 kbps avg, bit/(pixel*frame) 0.357
Аудио №1: 48 kHz, DTS, 3/2 (L,C,R,l,r) + LFE ch, ~768.00 kbps avg Дубляж, Blu-ray CEE
Аудио №2: 48 kHz, DTS, 3/2 (L,C,R,l,r) + LFE ch, ~1536.00 kbps avg Многоголосый закадровый, LDV
Аудио №3: 48 kHz, AC3, 3/2 (L,C,R,l,r) + LFE ch, ~448.00 kbps avg Многоголосый закадровый, Киномания
Аудио №4: 48 kHz, AC3, 3/2 (L,C,R,l,r) + LFE ch, ~448.00 kbps avg Многоголосый закадровый, Позитив-Мультимедиа
Аудио №5: 48 kHz, DTS, 3/2 (L,C,R,l,r) + LFE ch, ~768.00 kbps avg Многоголосый закадровый, Супербит
Аудио №6: 48 kHz, DTS, 3/2 (L,C,R,l,r) + LFE ch, ~1536.00 kbps avg Одноголосый закадровый, А.Гаврилов
Аудио №7: 48 kHz, DTS, 3/2 (L,C,R,l,r) + LFE ch, ~1536.00 kbps avg Одноголосый закадровый, Дмитрий «Гоблин» Пучков
Аудио №8: 48 kHz, DTS, 3/2 (L,C,R,l,r) + LFE ch, ~1536.00 kbps avg
Одноголосый закадровый, Ю.Живов
Аудио №9: 48 kHz, DTS, 3/2 (L,C,R,l,r) + LFE ch, ~1536.00 kbps avg Оригинал
Аудио №10: 48 kHz, AC3, 2/0 (L,R) ch, ~224.00 kbps avg Комментарии
Субтитры №1: Russian - (Blu-ray CEE)
Субтитры №2: Russian - (Киномания)
Субтитры №3: Russian - (расш. моменты - Гоблин)
Субтитры №4: English - original
Субтитры №5: Russian - (Комментарии)
Субтитры №6: English - (Комментарии)
Сохранены оригинальные чаптеры-

Скриншоты

Blu-Ray vs Rip vs [url=viewtopic.php?t=3268786]Этот Rip[/url]





MediaInfo

L:\Alien III [Чужой 3] Special Edition (1992) 1920x810 BDRip -=RbM=- RusEngSubsChpt.mkv
General
Unique ID : 196100098798182392515838827338041300176 (0x938781573AD5C1F2AEAB9A0BD10294D0)
Complete name : L:\Alien III [Чужой 3] Special 'Assembly Cut' Edition (1992) 1920x810 BDRip -=RbM=- RusEngSubsChpt.mkv
Format : Matroska
Format version : Version 2
File size : 24.1 GiB
Duration : 2h 24mn
Overall bit rate : 23.8 Mbps
Movie name : -=RbM=-
Encoded date : UTC 2012-09-17 14:03:30
Writing application : mkvmerge v5.8.0 ('No Sleep / Pillow') built on Sep 2 2012 15:37:04
Writing library : libebml v1.2.3 + libmatroska v1.3.0
Video #1
ID : 1
Format : AVC
Format/Info : Advanced Video Codec
Format profile : High@L4.1
Format settings, CABAC : Yes
Format settings, ReFrames : 5 frames
Codec ID : V_MPEG4/ISO/AVC
Bit rate : 13.1 Mbps
Width : 1 920 pixels
Height : 810 pixels
Display aspect ratio : 2.40:1
Frame rate mode : Variable
Original frame rate : 23.976 fps
Color space : YUV
Chroma subsampling : 4:2:0
Bit depth : 8 bits
Scan type : Progressive
Title : 47% of the original
Writing library : x264 core 125 r2208kMod d9d2288
Encoding settings : cabac=1 / ref=5 / deblock=1:-2:-2 / analyse=0x3:0x133 / me=umh / subme=11 / psy=1 / fade_compensate=0.00 / psy_rd=1.05:0.10 / mixed_ref=1 / me_range=48 / chroma_me=1 / trellis=2 / 8x8dct=1 / cqm=0 / deadzone=21,11 / fast_pskip=0 / chroma_qp_offset=-3 / threads=12 / lookahead_threads=2 / sliced_threads=0 / nr=0 / decimate=1 / interlaced=0 / bluray_compat=0 / constrained_intra=0 / bframes=12 / b_pyramid=2 / b_adapt=2 / b_bias=0 / direct=3 / weightb=1 / open_gop=0 / weightp=2 / keyint=240 / keyint_min=23 / scenecut=40 / intra_refresh=0 / rc=crf / mbtree=0 / crf=17.8000 / qcomp=0.70 / qpmin=0 / qpmax=69 / qpstep=4 / ip_ratio=1.30 / pb_ratio=1.20 / aq=2:0.60
Language : English
Default : Yes
Forced : No
Color primaries : BT.709
Transfer characteristics : BT.709
Matrix coefficients : BT.709
Audio #2
ID : 2
Format : DTS
Format/Info : Digital Theater Systems
Codec ID : A_DTS
Duration : 2h 24mn
Bit rate mode : Constant
Bit rate : 755 Kbps
Channel(s) : 6 channels
Channel positions : Front: L C R, Side: L R, LFE
Sampling rate : 48.0 KHz
Bit depth : 24 bits
Compression mode : Lossy
Stream size : 782 MiB (3%)
Title : Dub DTS 6ch 755kbps
Language : Russian
Default : Yes
Forced : No
Audio #3
ID : 3
Format : DTS
Format/Info : Digital Theater Systems
Codec ID : A_DTS
Duration : 2h 24mn
Bit rate mode : Constant
Bit rate : 1 510 Kbps
Channel(s) : 6 channels
Channel positions : Front: L C R, Side: L R, LFE
Sampling rate : 48.0 KHz
Bit depth : 24 bits
Compression mode : Lossy
Stream size : 1.53 GiB (6%)
Title : MVO DTS 6ch 1510kbps (LDV)
Language : Russian
Default : No
Forced : No
Audio #4
ID : 4
Format : AC-3
Format/Info : Audio Coding 3
Mode extension : CM (complete main)
Format settings, Endianness : Big
Codec ID : A_AC3
Duration : 2h 24mn
Bit rate mode : Constant
Bit rate : 448 Kbps
Channel(s) : 6 channels
Channel positions : Front: L C R, Side: L R, LFE
Sampling rate : 48.0 KHz
Bit depth : 16 bits
Compression mode : Lossy
Stream size : 464 MiB (2%)
Title : MVO AC3 6ch 448kbps (Киномания)
Language : Russian
Default : No
Forced : No
Audio #5
ID : 5
Format : AC-3
Format/Info : Audio Coding 3
Mode extension : CM (complete main)
Format settings, Endianness : Big
Codec ID : A_AC3
Duration : 2h 24mn
Bit rate mode : Constant
Bit rate : 448 Kbps
Channel(s) : 6 channels
Channel positions : Front: L C R, Side: L R, LFE
Sampling rate : 48.0 KHz
Bit depth : 16 bits
Compression mode : Lossy
Stream size : 464 MiB (2%)
Title : MVO AC3 6ch 448kbps (Позитив-Мультимедиа)
Language : Russian
Default : No
Forced : No
Audio #6
ID : 6
Format : DTS
Format/Info : Digital Theater Systems
Codec ID : A_DTS
Duration : 2h 24mn
Bit rate mode : Constant
Bit rate : 755 Kbps
Channel(s) : 6 channels
Channel positions : Front: L C R, Side: L R, LFE
Sampling rate : 48.0 KHz
Bit depth : 24 bits
Compression mode : Lossy
Stream size : 782 MiB (3%)
Title : MVO DTS 6ch 755kbps (Супербит)
Language : Russian
Default : No
Forced : No
Audio #7
ID : 7
Format : DTS
Format/Info : Digital Theater Systems
Codec ID : A_DTS
Duration : 2h 24mn
Bit rate mode : Constant
Bit rate : 1 510 Kbps
Channel(s) : 6 channels
Channel positions : Front: L C R, Side: L R, LFE
Sampling rate : 48.0 KHz
Bit depth : 24 bits
Compression mode : Lossy
Stream size : 1.53 GiB (6%)
Title : AVO DTS 6ch 1510kbps (А.Гаврилов)
Language : Russian
Default : No
Forced : No
Audio #8
ID : 8
Format : DTS
Format/Info : Digital Theater Systems
Codec ID : A_DTS
Duration : 2h 24mn
Bit rate mode : Constant
Bit rate : 1 510 Kbps
Channel(s) : 6 channels
Channel positions : Front: L C R, Side: L R, LFE
Sampling rate : 48.0 KHz
Bit depth : 24 bits
Compression mode : Lossy
Stream size : 1.53 GiB (6%)
Title : AVO DTS 6ch 1510kbps (Дмитрий «Гоблин» Пучков)
Language : Russian
Default : No
Forced : No
Audio #9
ID : 9
Format : DTS
Format/Info : Digital Theater Systems
Codec ID : A_DTS
Duration : 2h 24mn
Bit rate mode : Constant
Bit rate : 1 510 Kbps
Channel(s) : 6 channels
Channel positions : Front: L C R, Side: L R, LFE
Sampling rate : 48.0 KHz
Bit depth : 24 bits
Compression mode : Lossy
Stream size : 1.53 GiB (6%)
Title : AVO DTS 6ch 1510kbps (Ю.Живов)
Language : Russian
Default : No
Forced : No
Audio #10
ID : 10
Format : DTS
Format/Info : Digital Theater Systems
Codec ID : A_DTS
Duration : 2h 24mn
Bit rate mode : Constant
Bit rate : 1 510 Kbps
Channel(s) : 6 channels
Channel positions : Front: L C R, Side: L R, LFE
Sampling rate : 48.0 KHz
Bit depth : 24 bits
Compression mode : Lossy
Stream size : 1.53 GiB (6%)
Title : Original DTS 6ch 1510kbps
Language : English
Default : No
Forced : No
Audio #11
ID : 11
Format : AC-3
Format/Info : Audio Coding 3
Mode extension : CM (complete main)
Format settings, Endianness : Big
Codec ID : A_AC3
Duration : 2h 24mn
Bit rate mode : Constant
Bit rate : 224 Kbps
Channel(s) : 2 channels
Channel positions : Front: L R
Sampling rate : 48.0 KHz
Bit depth : 16 bits
Compression mode : Lossy
Stream size : 232 MiB (1%)
Title : AC3 2ch 224kbps (commentary)
Language : English
Default : No
Forced : No
Text #12
ID : 12
Format : UTF-8
Codec ID : S_TEXT/UTF8
Codec ID/Info : UTF-8 Plain Text
Title : CEE
Language : Russian
Default : No
Forced : No
Text #13
ID : 13
Format : UTF-8
Codec ID : S_TEXT/UTF8
Codec ID/Info : UTF-8 Plain Text
Title : Киномания
Language : Russian
Default : No
Forced : No
Text #14
ID : 14
Format : UTF-8
Codec ID : S_TEXT/UTF8
Codec ID/Info : UTF-8 Plain Text
Title : Гоблин
Language : Russian
Default : No
Forced : No
Text #15
ID : 15
Format : UTF-8
Codec ID : S_TEXT/UTF8
Codec ID/Info : UTF-8 Plain Text
Language : English
Default : No
Forced : No
Text #16
ID : 16
Format : UTF-8
Codec ID : S_TEXT/UTF8
Codec ID/Info : UTF-8 Plain Text
Title : комментарии
Language : Russian
Default : No
Forced : No
Text #17
ID : 17
Format : UTF-8
Codec ID : S_TEXT/UTF8
Codec ID/Info : UTF-8 Plain Text
Title : commentary
Language : English
Default : No
Forced : No
Menu
00:00:00.000 : en:00:00:00.000
00:03:42.973 : en:00:03:42.973
00:04:31.480 : en:00:04:31.480
00:09:29.694 : en:00:09:29.694
00:12:13.399 : en:00:12:13.399
00:15:01.442 : en:00:15:01.442
00:16:33.701 : en:00:16:33.701
00:24:27.925 : en:00:24:27.925
00:26:31.757 : en:00:26:31.757
00:31:07.741 : en:00:31:07.741
00:33:12.824 : en:00:33:12.824
00:35:53.151 : en:00:35:53.151
00:37:43.261 : en:00:37:43.261
00:43:32.735 : en:00:43:32.735
00:46:11.268 : en:00:46:11.268
00:49:15.286 : en:00:49:15.286
00:51:46.812 : en:00:51:46.812
00:55:52.057 : en:00:55:52.057
00:59:33.320 : en:00:59:33.320
01:02:51.434 : en:01:02:51.434
01:07:33.257 : en:01:07:33.257
01:11:03.634 : en:01:11:03.634
01:14:12.823 : en:01:14:12.823
01:17:08.874 : en:01:17:08.874
01:19:05.699 : en:01:19:05.699
01:24:41.034 : en:01:24:41.034
01:26:19.507 : en:01:26:19.507
01:28:02.861 : en:01:28:02.861
01:29:09.928 : en:01:29:09.928
01:34:12.772 : en:01:34:12.772
01:37:18.708 : en:01:37:18.708
01:39:29.255 : en:01:39:29.255
01:42:47.453 : en:01:42:47.453
01:46:07.444 : en:01:46:07.444
01:49:57.716 : en:01:49:57.716
01:54:04.796 : en:01:54:04.796
01:56:30.024 : en:01:56:30.024
01:58:32.897 : en:01:58:32.897
02:05:23.808 : en:02:05:23.808
02:08:09.181 : en:02:08:09.181
02:10:50.175 : en:02:10:50.175
02:12:42.913 : en:02:12:42.913
02:16:18.462 : en:02:16:18.462
02:19:09.966 : en:02:19:09.966

x264 2-nd pass log

x264 [info]: frame I:1310 Avg QP:15.90 size:137797 PSNR Mean Y:51.66 U:57.07 V:59.17 Avg:52.79 Global:52.43
x264 [info]: frame P:48113 Avg QP:16.59 size: 97711 PSNR Mean Y:50.07 U:55.33 V:57.22 Avg:51.14 Global:50.64
x264 [info]: frame B:158992 Avg QP:18.01 size: 62086 PSNR Mean Y:48.50 U:54.07 V:56.31 Avg:49.56 Global:49.06
x264 [info]: consecutive B-frames: 1.9% 3.0% 4.6% 43.5% 13.1% 26.3% 2.6% 2.3% 0.7% 0.7% 0.3% 0.5% 0.4%
x264 [info]: mb I I16..4: 3.3% 95.1% 1.6%
x264 [info]: mb P I16..4: 1.2% 66.4% 0.3% P16..4: 11.2% 12.8% 4.2% 0.4% 0.0% skip: 3.4%
x264 [info]: mb B I16..4: 0.4% 27.5% 0.1% B16..8: 19.3% 15.9% 3.3% direct:19.5% skip:14.0% L0:39.6% L1:35.4% BI:25.0%
x264 [info]: 8x8 transform intra:98.0% inter:61.4%
x264 [info]: direct mvs spatial:100.0% temporal:0.0%
x264 [info]: coded y,uvDC,uvAC intra: 95.3% 95.2% 79.6% inter: 48.4% 61.1% 15.0%
x264 [info]: i16 v,h,dc,p: 42% 12% 10% 36%
x264 [info]: i8 v,h,dc,ddl,ddr,vr,hd,vl,hu: 12% 11% 34% 6% 6% 6% 7% 7% 10%
x264 [info]: i4 v,h,dc,ddl,ddr,vr,hd,vl,hu: 17% 10% 12% 8% 13% 12% 12% 8% 9%
x264 [info]: i8c dc,h,v,p: 60% 19% 15% 5%
x264 [info]: Weighted P-Frames: Y:17.2% UV:12.2%
x264 [info]: ref P L0: 42.2% 8.5% 25.9% 11.8% 10.4% 1.0% 0.1%
x264 [info]: ref B L0: 78.9% 15.2% 4.5% 1.4%
x264 [info]: ref B L1: 93.5% 6.5%
x264 [info]: SSIM Mean Y:0.9888039 (19.509db)
x264 [info]: PSNR Mean Y:48.885 U:54.377 V:56.540 Avg:49.945 Global:49.388 kb/s:13577.29
x264 [info]: encoded 208415 frames, 5.23 fps, 13577.29 kb/s, duration 11:04:43.41
-Чужой 4: Воскрешение / Alien: Resurrection«Главное - спастись...»-Год выпуска: 1997
Страна: США
Жанр: ужасы, фантастика, боевик, триллер
Продолжительность: 01:56:08
Перевод 1: Профессиональный (полное дублирование)
Перевод 2: Профессиональный (многоголосый закадровый, LDV)
Перевод 3: Профессиональный (многоголосый закадровый, Киномания)
Перевод 4: Профессиональный (многоголосый закадровый, Позитив-Мультимедиа)
Перевод 5: Авторский (одноголосый закадровый, А.Гаврилов)
Перевод 6: Авторский (одноголосый закадровый, Дмитрий «Гоблин» Пучков)
Перевод 7: Авторский (одноголосый закадровый, Ю.Живов)
Субтитры: Русские, Английские-Режиссер: Жан-Пьер Жёне / Jean-Pierre Jeunet
Сценарий: Дэн О’Бэннон / Dan O'Bannon, Рональд Шусетт / Ronald Shusett, Джосс Уидон / Joss Whedon
Продюсер: Билл Бадалато / Bill Badalato, Гордон Кэрролл / Gordon Carroll, Дэвид Гайлер / David Giler, Уолтер Хилл / Walter Hill, Сигурни Уивер / Sigourney Weaver
Оператор: Дариус Хонджи / Darius Khondji
Композитор: Джон Фриззелл / John Frizzell, Джерри Голдсмит / Jerry Goldsmith
В ролях: Сигурни Уивер (Ellen Ripley,), Вайнона Райдер (Annalee Call,), Доминик Пинон (Vriess), Рон Перлман (Johner), Гари Дурдан (Christie), Майкл Уинкотт (Frank Elgyn), Ким Флауэрс (Sabra Hillard), Дэн Хедайя (Gen. Martin Perez), Дж. Э. Фримен (Dr. Mason Wren), Брэд Дуриф (Dr. Jonathan Gediman), Рэймонд Крус (Vincent Distephano), Лиленд Орсер (Larry Purvis)-Описание: Спустя двести лет после событий, произошедших на планете-тюрьме, группа ученых, опекаемых военным командованием, клонирует Эллен Рипли, чтобы с ее помощью заполучить детеныша инопланетного монстра. Вскоре он уже сам начинает плодиться, производя на свет новую породу - помесь кровожадного пришельца и… человека.-
-Качество: Blu-ray Rip 1080p
Формат: MKV
Видео: MPEG-4 AVC (H264), 1920x818, 23.976 fps, High Profile 4.1, ~16100 kbps avg, bit/(pixel*frame) 0.428
Аудио №1: 48 kHz, DTS, 3/2 (L,C,R,l,r) + LFE ch, ~768.00 kbps avg Дубляж, Blu-ray CEE
Аудио №2: 48 kHz, DTS, 3/2 (L,C,R,l,r) + LFE ch, ~1536.00 kbps avg Многоголосый закадровый, LDV
Аудио №3: 48 kHz, AC3, 3/2 (L,C,R,l,r) + LFE ch, ~448.00 kbps avg Многоголосый закадровый, Киномания
Аудио №4: 48 kHz, DTS, 3/2 (L,C,R,l,r) + LFE ch, ~768.00 kbps avg Многоголосый закадровый, Позитив-Мультимедиа
Аудио №5: 48 kHz, DTS, 3/2 (L,C,R,l,r) + LFE ch, ~1536.00 kbps avg Одноголосый закадровый, А.Гаврилов
Аудио №6: 48 kHz, DTS, 3/2 (L,C,R,l,r) + LFE ch, ~1536.00 kbps avg Одноголосый закадровый, Дмитрий «Гоблин» Пучков
Аудио №7: 48 kHz, DTS, 3/2 (L,C,R,l,r) + LFE ch, ~1536.00 kbps avg Одноголосый закадровый, Ю.Живов
Аудио №8: 48 kHz, DTS, 3/2 (L,C,R,l,r) + LFE ch, ~1536.00 kbps avg Оригинал
Аудио №9: 48 kHz, AC3, 2/0 (L,R) ch, ~224.00 kbps avg Комментарии
Субтитры №1: Russian - (Blu-ray CEE)
Субтитры №2:Russian - (Киномания)
Субтитры №3:Russian - (расш. моменты - Гоблин)
Субтитры №4:English - original
Субтитры №5:Russian - (Комментарии)
Субтитры №6:English - (Комментарии)

Сохранены оригинальные чаптеры-

Скриншоты

Blu-Ray vs Rip vs [url=viewtopic.php?t=3268786]Этот Rip[/url]






MediaInfo

L:\Alien IV - Resurrection [Чужой 4 - Воскрешение] Special Edition (1997) 1920x818 BDRip -=RbM=- RusEngSubsChpt.mkv
General
Unique ID : 234946613386835857785631390721139131408 (0xB0C11261D6D641C4A6816737C23DC410)
Complete name : L:\Alien IV - Resurrection [Чужой 4 - Воскрешение] Special Edition (1997) 1920x818 BDRip -=RbM=- RusEngSubsChpt.mkv
Format : Matroska
Format version : Version 2
File size : 21.4 GiB
Duration : 1h 56mn
Overall bit rate : 26.4 Mbps
Movie name : -=RbM=-
Encoded date : UTC 2012-09-19 12:45:14
Writing application : mkvmerge v5.8.0 ('No Sleep / Pillow') built on Sep 2 2012 15:37:04
Writing library : libebml v1.2.3 + libmatroska v1.3.0
Video #1
ID : 1
Format : AVC
Format/Info : Advanced Video Codec
Format profile : High@L4.1
Format settings, CABAC : Yes
Format settings, ReFrames : 5 frames
Codec ID : V_MPEG4/ISO/AVC
Bit rate : 16.1 Mbps
Width : 1 920 pixels
Height : 818 pixels
Display aspect ratio : 2.35:1
Frame rate mode : Variable
Original frame rate : 23.976 fps
Color space : YUV
Chroma subsampling : 4:2:0
Bit depth : 8 bits
Scan type : Progressive
Title : 41% of the original
Writing library : x264 core 128 r2216kMod 198a7ea
Encoding settings : cabac=1 / ref=5 / deblock=1:-3:-2 / analyse=0x3:0x133 / me=umh / subme=11 / psy=1 / fade_compensate=0.00 / psy_rd=1.15:0.10 / mixed_ref=1 / me_range=48 / chroma_me=1 / trellis=2 / 8x8dct=1 / cqm=0 / deadzone=21,11 / fast_pskip=0 / chroma_qp_offset=-3 / threads=12 / lookahead_threads=2 / sliced_threads=0 / nr=0 / decimate=1 / interlaced=0 / bluray_compat=0 / constrained_intra=0 / bframes=16 / b_pyramid=2 / b_adapt=2 / b_bias=0 / direct=3 / weightb=1 / open_gop=0 / weightp=2 / keyint=240 / keyint_min=23 / scenecut=40 / intra_refresh=0 / rc=crf / mbtree=0 / crf=17.5000 / qcomp=0.70 / qpmin=0 / qpmax=69 / qpstep=4 / ip_ratio=1.30 / pb_ratio=1.20 / aq=2:0.75
Language : English
Default : Yes
Forced : No
Color primaries : BT.709
Transfer characteristics : BT.709
Matrix coefficients : BT.709
Audio #2
ID : 2
Format : DTS
Format/Info : Digital Theater Systems
Codec ID : A_DTS
Duration : 1h 56mn
Bit rate mode : Constant
Bit rate : 755 Kbps
Channel(s) : 6 channels
Channel positions : Front: L C R, Side: L R, LFE
Sampling rate : 48.0 KHz
Bit depth : 24 bits
Compression mode : Lossy
Stream size : 627 MiB (3%)
Title : Dub DTS 6ch 755kbps
Language : Russian
Default : Yes
Forced : No
Audio #3
ID : 3
Format : DTS
Format/Info : Digital Theater Systems
Codec ID : A_DTS
Duration : 1h 56mn
Bit rate mode : Constant
Bit rate : 1 510 Kbps
Channel(s) : 6 channels
Channel positions : Front: L C R, Side: L R, LFE
Sampling rate : 48.0 KHz
Bit depth : 24 bits
Compression mode : Lossy
Stream size : 1.22 GiB (6%)
Title : MVO DTS 6ch 1510kbps (LDV)
Language : Russian
Default : No
Forced : No
Audio #4
ID : 4
Format : AC-3
Format/Info : Audio Coding 3
Mode extension : CM (complete main)
Format settings, Endianness : Big
Codec ID : A_AC3
Duration : 1h 56mn
Bit rate mode : Constant
Bit rate : 448 Kbps
Channel(s) : 6 channels
Channel positions : Front: L C R, Side: L R, LFE
Sampling rate : 48.0 KHz
Bit depth : 16 bits
Compression mode : Lossy
Stream size : 372 MiB (2%)
Title : MVO AC3 6ch 448kbps (Киномания)
Language : Russian
Default : No
Forced : No
Audio #5
ID : 5
Format : DTS
Format/Info : Digital Theater Systems
Codec ID : A_DTS
Duration : 1h 56mn
Bit rate mode : Constant
Bit rate : 755 Kbps
Channel(s) : 6 channels
Channel positions : Front: L C R, Side: L R, LFE
Sampling rate : 48.0 KHz
Bit depth : 24 bits
Compression mode : Lossy
Stream size : 627 MiB (3%)
Title : MVO DTS 6ch 755kbps (Позитив-Мультимедиа)
Language : Russian
Default : No
Forced : No
Audio #6
ID : 6
Format : DTS
Format/Info : Digital Theater Systems
Codec ID : A_DTS
Duration : 1h 56mn
Bit rate mode : Constant
Bit rate : 1 510 Kbps
Channel(s) : 6 channels
Channel positions : Front: L C R, Side: L R, LFE
Sampling rate : 48.0 KHz
Bit depth : 24 bits
Compression mode : Lossy
Stream size : 1.22 GiB (6%)
Title : AVO DTS 6ch 1510kbps (А.Гаврилов)
Language : Russian
Default : No
Forced : No
Audio #7
ID : 7
Format : DTS
Format/Info : Digital Theater Systems
Codec ID : A_DTS
Duration : 1h 56mn
Bit rate mode : Constant
Bit rate : 1 510 Kbps
Channel(s) : 6 channels
Channel positions : Front: L C R, Side: L R, LFE
Sampling rate : 48.0 KHz
Bit depth : 24 bits
Compression mode : Lossy
Stream size : 1.22 GiB (6%)
Title : AVO DTS 6ch 1510kbps (Дмитрий «Гоблин» Пучков)
Language : Russian
Default : No
Forced : No
Audio #8
ID : 8
Format : DTS
Format/Info : Digital Theater Systems
Codec ID : A_DTS
Duration : 1h 56mn
Bit rate mode : Constant
Bit rate : 1 510 Kbps
Channel(s) : 6 channels
Channel positions : Front: L C R, Side: L R, LFE
Sampling rate : 48.0 KHz
Bit depth : 24 bits
Compression mode : Lossy
Stream size : 1.22 GiB (6%)
Title : AVO DTS 6ch 1510kbps (Ю.Живов)
Language : Russian
Default : No
Forced : No
Audio #9
ID : 9
Format : DTS
Format/Info : Digital Theater Systems
Codec ID : A_DTS
Duration : 1h 56mn
Bit rate mode : Constant
Bit rate : 1 510 Kbps
Channel(s) : 6 channels
Channel positions : Front: L C R, Side: L R, LFE
Sampling rate : 48.0 KHz
Bit depth : 24 bits
Compression mode : Lossy
Stream size : 1.22 GiB (6%)
Title : Original DTS 6ch 1510kbps
Language : Russian
Default : No
Forced : No
Audio #10
ID : 10
Format : AC-3
Format/Info : Audio Coding 3
Mode extension : CM (complete main)
Format settings, Endianness : Big
Codec ID : A_AC3
Duration : 1h 56mn
Bit rate mode : Constant
Bit rate : 224 Kbps
Channel(s) : 2 channels
Channel positions : Front: L R
Sampling rate : 48.0 KHz
Bit depth : 16 bits
Compression mode : Lossy
Stream size : 186 MiB (1%)
Title : AC3 2ch 224kbps (commentary)
Language : English
Default : No
Forced : No
Text #11
ID : 11
Format : UTF-8
Codec ID : S_TEXT/UTF8
Codec ID/Info : UTF-8 Plain Text
Title : CEE
Language : Russian
Default : No
Forced : No
Text #12
ID : 12
Format : UTF-8
Codec ID : S_TEXT/UTF8
Codec ID/Info : UTF-8 Plain Text
Title : Киномания
Language : Russian
Default : No
Forced : No
Text #13
ID : 13
Format : UTF-8
Codec ID : S_TEXT/UTF8
Codec ID/Info : UTF-8 Plain Text
Title : Гоблин
Language : Russian
Default : No
Forced : No
Text #14
ID : 14
Format : UTF-8
Codec ID : S_TEXT/UTF8
Codec ID/Info : UTF-8 Plain Text
Language : English
Default : No
Forced : No
Text #15
ID : 15
Format : UTF-8
Codec ID : S_TEXT/UTF8
Codec ID/Info : UTF-8 Plain Text
Title : комментарии
Language : Russian
Default : No
Forced : No
Text #16
ID : 16
Format : UTF-8
Codec ID : S_TEXT/UTF8
Codec ID/Info : UTF-8 Plain Text
Title : commentary
Language : English
Default : No
Forced : No
Menu
00:00:00.000 : en:00:00:00.000
00:03:27.332 : en:00:03:27.332
00:04:26.308 : en:00:04:26.308
00:06:30.140 : en:00:06:30.140
00:08:49.279 : en:00:08:49.279
00:12:06.225 : en:00:12:06.225
00:15:03.528 : en:00:15:03.528
00:19:25.539 : en:00:19:25.539
00:21:37.838 : en:00:21:37.838
00:24:12.868 : en:00:24:12.868
00:26:19.995 : en:00:26:19.995
00:30:08.765 : en:00:30:08.765
00:32:19.563 : en:00:32:19.563
00:37:16.693 : en:00:37:16.693
00:39:26.739 : en:00:39:26.739
00:42:36.679 : en:00:42:36.679
00:46:30.663 : en:00:46:30.663
00:49:20.791 : en:00:49:20.791
00:53:35.379 : en:00:53:35.379
00:57:04.963 : en:00:57:04.963
01:03:01.653 : en:01:03:01.653
01:07:40.431 : en:01:07:40.431
01:19:37.147 : en:01:19:37.147
01:22:07.297 : en:01:22:07.297
01:28:21.421 : en:01:28:21.421
01:31:45.917 : en:01:31:45.917
01:34:15.525 : en:01:34:15.525
01:38:58.391 : en:01:38:58.391
01:40:45.539 : en:01:40:45.539
01:43:49.849 : en:01:43:49.849
01:47:52.299 : en:01:47:52.299
01:49:51.418 : en:01:49:51.418

x264 2-nd pass log

x264 [info]: frame I:961 Avg QP:16.02 size:152105 PSNR Mean Y:49.26 U:52.56 V:54.00 Avg:50.21 Global:49.82
x264 [info]: frame P:34238 Avg QP:17.14 size:115865 PSNR Mean Y:48.24 U:51.48 V:53.04 Avg:49.18 Global:48.72
x264 [info]: frame B:131882 Avg QP:18.65 size: 78714 PSNR Mean Y:46.82 U:50.35 V:52.02 Avg:47.81 Global:47.35
x264 [info]: consecutive B-frames: 3.7% 2.6% 4.9% 14.0% 12.3% 31.3% 7.5% 2.7% 3.2% 3.7% 3.1% 2.2% 3.1% 3.7% 1.1% 0.6% 0.4%
x264 [info]: mb I I16..4: 4.8% 88.1% 7.1%
x264 [info]: mb P I16..4: 1.4% 54.9% 1.4% P16..4: 15.2% 17.0% 4.2% 0.4% 0.0% skip: 5.6%
x264 [info]: mb B I16..4: 0.5% 22.4% 0.3% B16..8: 28.8% 20.2% 3.9% direct:12.0% skip:12.1% L0:44.1% L1:36.7% BI:19.2%
x264 [info]: 8x8 transform intra:96.0% inter:55.6%
x264 [info]: direct mvs spatial:100.0% temporal:0.0%
x264 [info]: coded y,uvDC,uvAC intra: 95.0% 92.1% 74.6% inter: 49.5% 50.7% 8.3%
x264 [info]: i16 v,h,dc,p: 39% 17% 9% 35%
x264 [info]: i8 v,h,dc,ddl,ddr,vr,hd,vl,hu: 11% 9% 13% 9% 11% 11% 9% 13% 13%
x264 [info]: i4 v,h,dc,ddl,ddr,vr,hd,vl,hu: 37% 7% 8% 6% 10% 10% 8% 7% 7%
x264 [info]: i8c dc,h,v,p: 47% 21% 18% 14%
x264 [info]: Weighted P-Frames: Y:22.8% UV:16.5%
x264 [info]: ref P L0: 40.7% 5.2% 24.7% 14.7% 11.6% 2.4% 0.6%
x264 [info]: ref B L0: 65.1% 25.4% 8.1% 1.4%
x264 [info]: ref B L1: 85.2% 14.8%
x264 [info]: SSIM Mean Y:0.9859113 (18.511db)
x264 [info]: PSNR Mean Y:47.126 U:50.594 V:52.241 Avg:48.104 Global:47.611 kb/s:16639.11
x264 [info]: encoded 167081 frames, 4.27 fps, 16639.11 kb/s, duration 10:51:33.25
-=Раздача ведется в промежуток с 7:00 по 19:00 по Московскому времени=-
[Профиль] [ЛС]
Показать сообщения:    

Текущее время: Сегодня 11:55

Часовой пояс: GMT



Вы не можете начинать темы
Вы не можете отвечать на сообщения
Вы не можете редактировать свои сообщения
Вы не можете удалять свои сообщения
Вы не можете голосовать в опросах
Вы не можете прикреплять файлы к сообщениям
Вы не можете скачивать файлы