Чужестранка / Outlander (Cезон 1, Cерия 1-16 из 16) [2014-2015, Фантастика, драма, мелодрама, WEBDLRip-AVC] [1080р] [MVO] [SET]

 
Автор Сообщение

Враг Нароода ®

Стаж: 1 год 8 месяцев

Сообщений: 112



Награды: 2 (Подробнее)

Mega Seeder 1 (Количество: 1) За внесенный вклад в развитие сайта (Количество: 1)
Торрент-статистика

Создавать темы 13-Апр-2015 11:06

[Цитировать]

--Чужестранка / Outlander Cезон 1, Cерия 1-16 из 16-- --Год выпуска: 2014-2015
Выпущено: США ,Left Bank Productions, Sony Pictures Television
Жанр: Фантастика, драма, мелодрама
Продолжительность: 01:04:00
Сезон: 1
Серия: 1-16
Количество серий в сезоне: 16
Озвучка:Профессиональная многоголосая закадровая(SET)
Субтитры: НЕТ-- --Режиссер: Анна Ферстер, Ричард Кларк, Брайан Келли--В ролях: Нелл Хадсон, Джон Хеффернан, Каитриона Бэлфи, Сэм Юэн, Грэм МакТавиш, Дункан Лакруа, Гари Льюис, Лотте Вербеек, Тобиаш Мензес, Грант О`Рурк, Стивен Уолтерс, Джеймс Флит, Трэйси Уилкинсон, Прентис Хэнкок, Лайам Карни, Стивен Кри, Каллум Митчелл-- Клэр, работавшая медсестрой во время Второй мировой войны, случайно перемещается во времени и попадает в 1743 год. В этом мире, полном приключений, она знакомится с шотландским рыцарем Джейми. У героев завязывается страстный роман, несмотря на то, что сердце Клэр разрывается между двумя мужчинами — Джейми и ее мужем Фрэнком, который остался в другом времени.-- --Качество : WEB-DLRip-AVC 1080p
Формат: MPEG-4
Видео кодек: H264
Видео: 7233ит/сек,1920х1080(16.9),в 25.000кадр/сек,AVC(Baseline@L4.0)(1Ref Frames)
Аудио кодек: AAC
Аудио Russian:312Кбит/сек,48.0КГц,2канала,AAC,(Version4)(LC)--

Доп. информация:

Звуковая дорожка сделана путем наложения чистого голоса озвучивателей на центральный канал оригинальной дорожки. Качество идентично звуковой дорожке.
--

Список эпизодов сезона


01. Англичанка / Sassenach
02. Замок Леок / Сastle Leoch
03. Выход / The Way Out
04. Собрание / The Gathering
05. Плата /Rent
06. Командир Гарнизона / Garrison Commander
07. Свадьба / The Wedding
08. Обе стороны / Both Sides Now
09. Расплата / Reckoning
10. По щелчку моих пальцев / By the Pricking of My Thumb
11. Отметка дьявола / Devil's Mark
12. Лаллиброх / Lallybroch
13. Стража / Watch
14. Поиски
15. Уэнтуортская тюрьма
16. Искупление души человеческой
--

MediaInfo сезона

General
Полное имя : D:\Ф А Н Т А С Т И К А +П Р И К Л Ю Ч Е Н И Я + Ф Э Н Т А З И\Чужестранка\OUTLANDER_2014_S01_RUS[SET]_x264_Nikolai.Baranov_WEB-DLRip-AVC_(1080p)\Outlander_2014_S01E01_RUS[SET]_x264_Nikolai.Baranov_WEB-DLRip-AVC_(1080p).mp4
Формат : MPEG-4
Профиль формата : Base Media
Идентификатор кодека : isom
Размер файла : 3.21 GiB
Продолжительность : 1h 0mn
Режим общего битрейта : Variable
Общий поток : 7 549 Kbps
Название фильма : Legends 1x01 Pilot @ AlexFilm
Дата кодирования : UTC 2014-09-01 20:14:20
Дата пометки : UTC 2014-09-01 20:14:20
Программа кодирования : Lavf51.12.1
Video
Идентификатор : 1
Формат : AVC
Формат/Информация : Advanced Video Codec
Профиль формата : Baseline@L4.0
Параметр CABAC формата : No
Параметр ReFrames формата : 1 frame
Параметр GOP формата : M=1, N=12
Идентификатор кодека : avc1
Идентификатор кодека/Информация : Advanced Video Coding
Продолжительность : 1h 0mn
Вид битрейта : Variable
Битрейт : 7 233 Kbps
Максимальный битрейт : 10.5 Mbps
Ширина : 1 920 pixels
Высота : 1 080 pixels
Соотношение сторон : 16:9
Режим частоты кадров : Constant
Частота кадров : 25.000 fps
Частота кадров в оригинале : 24.000 fps
Цветовое пространство : YUV
Субдискретизация насыщенности : 4:2:0
Битовая глубина : 8 bits
Тип развёртки : Progressive
Бит/(Пиксели*Кадры) : 0.140
Размер потока : 3.08 GiB (96%)
Язык : English
Дата кодирования : UTC 2014-09-01 20:14:20
Дата пометки : UTC 2014-09-01 20:14:20
Audio
Идентификатор : 2
Формат : AAC
Формат/Информация : Advanced Audio Codec
Профиль формата : LC
Идентификатор кодека : 40
Продолжительность : 1h 0mn
Вид битрейта : Variable
Битрейт : 312 Kbps
Каналы : 2 channels
Channel(s)_Original : 6 channels
Расположение каналов : Front: L C R, Side: L R, LFE
Частота : 48.0 KHz
Метод сжатия : Lossy
Размер потока : 136 MiB (4%)
Язык : Russian
Дата кодирования : UTC 2014-09-01 20:14:20
Дата пометки : UTC 2014-09-01 20:14:20
--

Скриншоты

-- --

Как закачать отдельный файл

1. Открыть торрент
2. Снять галки с тех файлов торрента, которые мы не хотим закачивать. Оставляем только на нужных нам файлах (файле).
3. Нажать О.К.
В клиенте utorrent
Инструкция
1) Открыть торрент

2) Снять галки с тех файлов торрента, которые мы не хотим закачивать:
* либо вручную, снимая с каждого файла галку( скрин №1)
* либо, нажав кнопку "Снять метки (Select None)", сняв сразу со всех файлов(скрин №2)
№1

№2

Оставляем только на нужных нам файлах (файле).

3)Нажать О.К
-- -- --Внимание!!! 01.06. 2015. РАЗДАЧА ОБНОВЛЕНА.ФИНАЛ СЕЗОНА.ОБНОВИТЕ ТОРЕНТ ФАЙЛ.ПРИЯТНОГО ПРОСМОТРА . --Релиз от: Nikolai.Baranov -- -- -- --
[Профиль] [ЛС]
Показать сообщения:    

Текущее время: Сегодня 19:36

Часовой пояс: GMT



Вы не можете начинать темы
Вы не можете отвечать на сообщения
Вы не можете редактировать свои сообщения
Вы не можете удалять свои сообщения
Вы не можете голосовать в опросах
Вы не можете прикреплять файлы к сообщениям
Вы не можете скачивать файлы