Чужая нация / Alien Nation (1988) BDRip 720p от Koenig | P, A

 
Автор Сообщение

Russian Mafia ®

Пол:

Стаж: 1 год 8 месяцев

Сообщений: 4257



Награды: 10 (Подробнее)

Top Releaser 5 (Количество: 1) За внесенный вклад в развитие сайта (Количество: 1) Top Releaser 4 (Количество: 1)
Торрент-статистика

Создавать темы 06-Май-2016 18:44

[Цитировать]

Информация о фильме
Название: Чужая нация
Оригинальное название: Alien Nation
Год выхода: 1988
Жанр: Фантастика, боевик, криминал
Режиссер: Грэм Бейкер
В ролях: Джеймс Каан, Мэнди Пэтинкин, Теренс Стэмп, Кевин Мейджор Ховард, Лесли Бевис, Питер Джейсон, Конрад Данн, Джефф Кобер, Роджер Аарон Браун, Тони Саймотс
О фильме:
В пустыне Мохаве потерпел крушение огромный инопланетный космический корабль, перевозивший 250 тысяч рабов из разных концов Галактики. Пришельцы стали жить среди людей, многие из которых были очень враждебно настроены по отношению к «отбросам Вселенной». Среди них — детектив Мэттью Сайкс, напарник которого погиб в перестрелке с бандой пришельцев. Перебирая бумаги погибшего друга, Мэттью делает открытие: его убили за то, что он пытался выяснить, почему пришельцы так слепо повиновались своим бывшим хозяевам. Когда в городе начинают находить трупы пришельцев, умерших от странной болезни, а на страницы газет попадает снимок чудовищной насекомообразной твари, Мэттью и его новый напарник, пришелец Джордж, вынуждены работать рука об руку, чтобы раскрыть тайну этих событий…

Страна: США
Студия: American Entertainment Partners II L.P., Twentieth Century Fox Film Corporation
Продолжительность: 01:29:56
Перевод: Профессиональный многоголосый, авторский
Файл
Кодек: x264
Качество: BDRip 720p
Видео: MPEG-4 AVC, 4000 Кбит/с, 1280x544, 23.976 кадр/с
Аудио #1: AC3, 6 ch, 384 Кбит/с | Профессиональный многоголосый (R5)
Аудио #2: AC3, 2 ch, 192 Кбит/с | Авторский (А.Гаврилов)
Аудио #3: DTS, 6 ch, 1509 Кбит/с | Английский

MediaInfo

Общее
Уникальный идентификатор : 198097179486599134768613897300519439457 (0x950821054DF02402BA71E47938C84C61)
Полное имя : Alien Nation.1988.BDRip.720p.mkv
Формат : Matroska
Версия формата : Version 4 / Version 2
Размер файла : 3,82 Гбайт
Продолжительность : 1 ч. 29 м.
Общий поток : 6086 Кбит/сек
Название фильма : Alien Nation
Режиссёр : Graham Baker
Дата кодирования : UTC 2016-05-06 06:08:48
Программа кодирования : mkvmerge v7.7.0 ('Six Voices') 32bit built on Feb 28 2015 23:23:00
Библиотека кодирования : libebml v1.3.1 + libmatroska v1.4.2
Attachements : cover.jpg
Release : Koenig
DURATION : 01:29:56.021000000
NUMBER_OF_FRAMES : 505877
NUMBER_OF_BYTES : 1017824592
_STATISTICS_WRITING_APP : mkvmerge v7.7.0 ('Six Voices') 32bit built on Feb 28 2015 23:23:00
_STATISTICS_WRITING_DATE_UTC : 2016-05-06 06:08:48
_STATISTICS_TAGS : BPS DURATION NUMBER_OF_FRAMES NUMBER_OF_BYTES
Видео
Идентификатор : 1
Формат : AVC
Формат/Информация : Advanced Video Codec
Профиль формата : High@L4.1
Параметр CABAC формата : Да
Параметр ReFrames формата : 9 кадров
Идентификатор кодека : V_MPEG4/ISO/AVC
Продолжительность : 1 ч. 29 м.
Битрейт : 3999 Кбит/сек
Ширина : 1280 пикселей
Высота : 544 пикселя
Соотношение сторон : 2,35:1
Режим частоты кадров : Постоянный
Частота кадров : 23,976 кадра/сек
Цветовое пространство : YUV
Субдискретизация насыщенности : 4:2:0
Битовая глубина : 8 бит
Тип развёртки : Прогрессивная
Бит/(Пиксели*Кадры) : 0.240
Размер потока : 2,44 Гбайт (64%)
Библиотека кодирования : x264 core 146 r2538 121396c
Настройки программы : cabac=1 / ref=9 / deblock=1:-3:-3 / analyse=0x3:0x113 / me=umh / subme=10 / psy=1 / psy_rd=1.00:0.00 / mixed_ref=1 / me_range=32 / chroma_me=1 / trellis=2 / 8x8dct=1 / cqm=0 / deadzone=21,11 / fast_pskip=0 / chroma_qp_offset=-2 / threads=3 / lookahead_threads=1 / sliced_threads=0 / nr=0 / decimate=1 / interlaced=0 / bluray_compat=0 / constrained_intra=0 / bframes=10 / b_pyramid=2 / b_adapt=2 / b_bias=0 / direct=3 / weightb=1 / open_gop=0 / weightp=2 / keyint=240 / keyint_min=23 / scenecut=40 / intra_refresh=0 / rc_lookahead=40 / rc=2pass / mbtree=1 / bitrate=3999 / ratetol=1.0 / qcomp=0.60 / qpmin=10 / qpmax=51 / qpstep=4 / cplxblur=20.0 / qblur=0.5 / vbv_maxrate=50000 / vbv_bufsize=62500 / nal_hrd=none / filler=0 / ip_ratio=1.40 / aq=1:1.00
Default : Да
Forced : Нет
Аудио #1
Идентификатор : 2
Формат : AC-3
Формат/Информация : Audio Coding 3
Расширение режима : CM (complete main)
Параметр Endianness формата : Big
Идентификатор кодека : A_AC3
Продолжительность : 1 ч. 29 м.
Вид битрейта : Постоянный
Битрейт : 384 Кбит/сек
Каналы : 6 каналов
Расположение каналов : Front: L C R, Side: L R, LFE
Частота : 48,0 КГц
Метод сжатия : С потерями
Размер потока : 247 Мбайт (6%)
Заголовок : MVO - R5
Язык : Russian
Default : Да
Forced : Нет
Аудио #2
Идентификатор : 3
Формат : AC-3
Формат/Информация : Audio Coding 3
Расширение режима : CM (complete main)
Параметр Endianness формата : Big
Идентификатор кодека : A_AC3
Продолжительность : 1 ч. 29 м.
Вид битрейта : Постоянный
Битрейт : 192 Кбит/сек
Каналы : 2 канала
Расположение каналов : Front: L R
Частота : 48,0 КГц
Метод сжатия : С потерями
Размер потока : 124 Мбайт (3%)
Заголовок : AVO - А.Гаврилов
Язык : Russian
Default : Нет
Forced : Нет
Аудио #3
Идентификатор : 4
Формат : DTS
Формат/Информация : Digital Theater Systems
Режим : 16
Параметр Endianness формата : Big
Идентификатор кодека : A_DTS
Продолжительность : 1 ч. 29 м.
Вид битрейта : Постоянный
Битрейт : 1509 Кбит/сек
Каналы : 6 каналов
Расположение каналов : Front: L C R, Side: L R, LFE
Частота : 48,0 КГц
Битовая глубина : 24 бит
Метод сжатия : С потерями
Размер потока : 971 Мбайт (25%)
Язык : English
Default : Нет
Forced : Нет
Меню
00:00:00.000 : en:
00:00:10.384 : en:
00:00:15.557 : en:
00:04:42.157 : en:
00:13:13.251 : en:
00:20:10.126 : en:
00:29:30.518 : en:
00:41:53.969 : en:
00:51:31.046 : en:
00:59:37.157 : en:
01:08:17.135 : en:
01:26:23.136 : en:

Скриншоты

[Профиль] [ЛС]
Показать сообщения:    

Текущее время: Сегодня 08:17

Часовой пояс: GMT



Вы не можете начинать темы
Вы не можете отвечать на сообщения
Вы не можете редактировать свои сообщения
Вы не можете удалять свои сообщения
Вы не можете голосовать в опросах
Вы не можете прикреплять файлы к сообщениям
Вы не можете скачивать файлы